Tags
Language
Tags

Lyn Collins - Think (about it) (1972) Reissue 2014

Posted By: Designol
Lyn Collins - Think (about it) (1972) Reissue 2014

Lyn Collins - Think (about it) (1972) Reissue 2014
EAC | FLAC | Image (Cue&Log) ~ 198 Mb | Mp3 (CBR320) ~ 80 Mb | Scans included
Funk, Soul | Label: Polydor | # UICY-76200 | Time: 00:30:39

At the time of the release of Think (About It) in 1972, Lyn Collins had been a member of James Brown's performing revue for about two years. Her full-throated voice had earned her the nickname "the Female Preacher" and a shot to record her own album. Of course, the Godfather was in the producer's chair, writing four of the nine tracks, directing the J.B.'s as they laid down their usual funky grooves, and liberally adding vocals throughout. The title track is the main point of interest here; from Collins' throat-ripping vocals to the track's nasty groove to Brown's background interjections, this is a killer. (Rob Base & DJ E-Z Rock later sampled the track for their rap classic "It Takes Two"). The rest of the record is a little uneven: "Just Won't Do Right" is a good doo wop-ish ballad with some churchy organ and great vocals by Collins and Brown, "Wheels of Life" is a nice little groover that sounds like vintage Aretha Franklin, and "Women's Lib" is a very slow ballad that lets Collins show off her anguished yowl of a vocal to its fullest. Where the album stumbles is on the covers of familiar songs. Her versions of Bill Withers' "Ain't No Sunshine" and the Gamble & Huff classic "Never Gonna Give You Up" are mediocre, and worst of all is her leaden take on "Fly Me to the Moon." Still, the record is worth tracking down for hardcore James Brown or funky soul fans. The less devoted should look for "Think (About It)" on one of the many compilations on which it appears.

Review by Tim Sendra, Allmusic.com

Lyn Collins - Think (about it) (1972) Reissue 2014



Tracklist:

01. Think (About It) (03:24)
02. Just Won't Do Right (03:02)
03. Wheels of Life (03:05)
04. Ain't No Sunshine (02:51)
05. Things Got to Get Better (03:27)
06. Never Gonna Give Yoy Up (03:06)
07. Reach Out for Me (03:40)
08. Women's Lib (05:21)
09. Fly Me to the Moon (02:41)


Exact Audio Copy V1.0 beta 3 from 29. August 2011

Отчёт EAC об извлечении, выполненном 29. апреля 2015, 20:30

Lyn Collins / Think (about it)

Дисковод: Optiarc DVD RW AD-7203S Adapter: 0 ID: 0

Режим чтения : Достоверность
Использование точного потока : Да
Отключение кэша аудио : Да
Использование указателей C2 : Нет

Коррекция смещения при чтении : 48
Способность читать области Lead-in и Lead-out : Нет
Заполнение пропущенных сэмплов тишиной : Да
Удаление блоков с тишиной в начале и конце : Нет
При вычислениях CRC использовались нулевые сэмплы : Да
Интерфейс : Встроенный Win32-интерфейс для Win NT/2000

Выходной формат : Пользовательский кодировщик
Выбранный битрейт : 128 kBit/s
Качество : Высокий
Добавление ID3-тега : Нет
Утилита сжатия : C:\Program Files\Exact Audio Copy\Flac\flac.exe
Дополнительные параметры : -V -8 -T "Date=%year%" -T "Genre=%genre%" %source%


TOC извлечённого CD

Трек | Старт | Длительность | Начальный сектор | Конечный сектор
––––––––––––––––––––––––––––––––––-
1 | 0:00.00 | 3:24.12 | 0 | 15311
2 | 3:24.12 | 3:02.20 | 15312 | 28981
3 | 6:26.32 | 3:05.28 | 28982 | 42884
4 | 9:31.60 | 2:51.05 | 42885 | 55714
5 | 12:22.65 | 3:27.57 | 55715 | 71296
6 | 15:50.47 | 3:06.08 | 71297 | 85254
7 | 18:56.55 | 3:40.25 | 85255 | 101779
8 | 22:37.05 | 5:21.10 | 101780 | 125864
9 | 27:58.15 | 2:41.02 | 125865 | 137941


Характеристики диапазона извлечения и сообщения об ошибках

Выбранный диапазон

Имя файла F:\EAC\72-Lyn Collins - Think (about it)\Lyn Collins - Think (about it)\Lyn Collins - Think (about it).wav

Пиковый уровень 97.7 %
Скорость извлечения 3.3 X
Качество диапазона 100.0 %
CRC теста D424A642
CRC копии D424A642
Копирование… OK

Ошибок не произошло


AccurateRip: сводка

Трек 1 отсутствует в базе данных
Трек 2 отсутствует в базе данных
Трек 3 отсутствует в базе данных
Трек 4 отсутствует в базе данных
Трек 5 отсутствует в базе данных
Трек 6 отсутствует в базе данных
Трек 7 отсутствует в базе данных
Трек 8 отсутствует в базе данных
Трек 9 отсутствует в базе данных

Ни одного трека нет в базе AccurateRip

Конец отчёта

==== Контрольная сумма отчёта F4CC2A0786F383945451590E7A15715A67BCF4B97ECFCD2E7D71890D0A65DE34 ====

foobar2000 1.3.8 / Dynamic Range Meter 1.1.1
log date: 2015-05-13 16:33:00

––––––––––––––––––––––––––––––––––––––––
Analyzed: Lyn Collins / Think (about it)
––––––––––––––––––––––––––––––––––––––––

DR Peak RMS Duration Track
––––––––––––––––––––––––––––––––––––––––
DR12 -0.20 dB -14.41 dB 3:24 01-Think (About It)
DR8 -0.20 dB -10.33 dB 3:02 02-Just Won't Do Right
DR7 -0.20 dB -9.66 dB 3:05 03-Wheels of Life
DR9 -0.20 dB -11.26 dB 2:51 04-Ain't No Sunshine
DR10 -0.20 dB -11.43 dB 3:28 05-Things Got to Get Better
DR12 -1.15 dB -15.47 dB 3:06 06-Never Gonna Give Yoy Up
DR8 -0.20 dB -9.76 dB 3:40 07-Reach Out for Me
DR6 -0.20 dB -9.35 dB 5:21 08-Women's Lib
DR9 -0.20 dB -11.22 dB 2:41 09-Fly Me to the Moon
––––––––––––––––––––––––––––––––––––––––

Number of tracks: 9
Official DR value: DR9

Samplerate: 44100 Hz
Channels: 2
Bits per sample: 16
Bitrate: 856 kbps
Codec: FLAC
================================================================================

Lyn Collins - Think (about it) (1972) Reissue 2014

Lyn Collins - Think (about it) (1972) Reissue 2014

All thanks to original releaser - jlhjlh

More interesting music in My Blog