Subcategories

The Mana'o Company - Spread A Little Aloha (2001) {A Guava Ding Thing} **[RE-UP]**

Posted By: TestTickles
The Mana'o Company - Spread A Little Aloha (2001) {A Guava Ding Thing} **[RE-UP]**

The Mana'o Company - Spread A Little Aloha (2001)
EAC Rip | FLAC with CUE and log | scans | 353 mb
MP3 CBR 320kbps | RAR | 128 mb
Genre: world, Hawaiian, Jawaiian

Spread A Little Aloha is the 2001 CD by Hawaiian group The Mana'o Company, a group that featured Weldon Kekauoha. Some of the special guests in this recording include Keali'i Reichel, Three Plus, Damon Williams, B.E.T., Fiji, and five others. This was released by A Guava Ding Thing.

The Mana'o Company - Spread A Little Aloha (2001) {A Guava Ding Thing} **[RE-UP]**

1. All Day Music
2. Driving Me Crazy
3. Aloha
4. Dedicate My Love
5. Roots Rockin
6. Rock Me
7. Rollin Down Town
8. Back In The Day
9. Steppin Out / Hawaiian Children
10. Sweet Reggae Woman
11. Babe
12. He Will Carry You
13. 96 Degrees In The Shade

Damon Kennedy-vocals, bass, guitar, ukulele, keyboard
Salaam Tillman-vocals, drums, percussions
John Baricuatro-vocals, guitar
Weldon Kekauoha-lead & background vocals
Kaulana Pakele-lead & background vocals

The Mana'o Company Horn Section
Steve Ware-trumpet
Pet Hennessee-trombone
Larry Cook-sax & flute

GUEST MUSICIANS
Dave Tucciarone-keyboards, electric guitar, acoustic guitar, slack key guitar
Jan Luna-keyboards
George Veikoso-keyboards
Michael Grande-keyboards
J.P. Kennedy-ukulele
Mario Largosa-electric guitar
Harold "K-Dawg" Kama Jr.-acoustic guitar, slack key guitar

GUEST VOCALS
Keali'i Reichel (track 3)
Fiji (tracks 4, 8, 9)
Three Plus (tracks 6, 9)
Damon Williams (track 6)
Ho'onu'a (track 3)
B.E.T. (track 10)
Caleb Keolanui (track 2)
Micah Keolanui (track 2)

Produced by Danny Kennedy, Dave Tucciarone & TMC
Engineered by Dave Tucciarone
Mastered by techno-voice Bob Landzler

Exact Audio Copy V1.1 from 23. June 2015

EAC extraction logfile from 2. May 2016, 9:01

The Mana`o Company / Spread A Little Aloha

Used drive : TEAC DVD-ROM DV-28SW Adapter: 1 ID: 0

Read mode : Secure
Utilize accurate stream : Yes
Defeat audio cache : Yes
Make use of C2 pointers : No

Read offset correction : 6
Overread into Lead-In and Lead-Out : No
Fill up missing offset samples with silence : Yes
Delete leading and trailing silent blocks : No
Null samples used in CRC calculations : Yes
Used interface : Native Win32 interface for Win NT & 2000
Gap handling : Left out

Used output format : Internal WAV Routines
Sample format : 44.100 Hz; 16 Bit; Stereo


TOC of the extracted CD

Track | Start | Length | Start sector | End sector
––––––––––––––––––––––––––––-
1 | 0:00.00 | 3:43.52 | 0 | 16776
2 | 3:43.52 | 3:55.17 | 16777 | 34418
3 | 7:38.69 | 4:05.51 | 34419 | 52844
4 | 11:44.45 | 4:04.68 | 52845 | 71212
5 | 15:49.38 | 3:59.01 | 71213 | 89138
6 | 19:48.39 | 4:34.74 | 89139 | 109762
7 | 24:23.38 | 3:36.05 | 109763 | 125967
8 | 27:59.43 | 4:21.50 | 125968 | 145592
9 | 32:21.18 | 4:01.35 | 145593 | 163702
10 | 36:22.53 | 4:37.67 | 163703 | 184544
11 | 41:00.45 | 4:34.39 | 184545 | 205133
12 | 45:35.09 | 3:33.39 | 205134 | 221147
13 | 49:08.48 | 4:38.23 | 221148 | 242020


Track 1

Filename C:\My Documents\My FLAC\The Mana'o Company - Spread A Little Aloha (2001) [FLAC] {A Guava Ding Thing}\01 - All Day Music.wav

Pre-gap length 0:00:02.00

Peak level 99.7 %
Extraction speed 2.8 X
Track quality 100.0 %
Test CRC CFBB1F4C
Copy CRC CFBB1F4C
Cannot be verified as accurate (confidence 2) [7F7ABFD7], AccurateRip returned [8A522DC7] (AR v2)
Copy OK

Track 2

Filename C:\My Documents\My FLAC\The Mana'o Company - Spread A Little Aloha (2001) [FLAC] {A Guava Ding Thing}\02 - Driving Me Crazy.wav

Peak level 98.4 %
Extraction speed 3.1 X
Track quality 100.0 %
Test CRC 4911B1F1
Copy CRC 4911B1F1
Cannot be verified as accurate (confidence 2) [4492FC5E], AccurateRip returned [308B906F] (AR v2)
Copy OK

Track 3

Filename C:\My Documents\My FLAC\The Mana'o Company - Spread A Little Aloha (2001) [FLAC] {A Guava Ding Thing}\03 - Aloha.wav

Peak level 99.9 %
Extraction speed 2.9 X
Track quality 99.9 %
Test CRC E62B3D84
Copy CRC E62B3D84
Cannot be verified as accurate (confidence 2) [84FF8ED6], AccurateRip returned [944503F1] (AR v2)
Copy OK

Track 4

Filename C:\My Documents\My FLAC\The Mana'o Company - Spread A Little Aloha (2001) [FLAC] {A Guava Ding Thing}\04 - Dedicate My Love.wav

Peak level 94.1 %
Extraction speed 3.7 X
Track quality 100.0 %
Test CRC 49A46D9A
Copy CRC 49A46D9A
Cannot be verified as accurate (confidence 2) [FFCC43EE], AccurateRip returned [9BF8DE49] (AR v2)
Copy OK

Track 5

Filename C:\My Documents\My FLAC\The Mana'o Company - Spread A Little Aloha (2001) [FLAC] {A Guava Ding Thing}\05 - Roots Rockin'.wav

Peak level 99.9 %
Extraction speed 3.3 X
Track quality 99.9 %
Test CRC 60E7C2F4
Copy CRC 60E7C2F4
Cannot be verified as accurate (confidence 2) [CF7C31D5], AccurateRip returned [E67B2CE3] (AR v2)
Copy OK

Track 6

Filename C:\My Documents\My FLAC\The Mana'o Company - Spread A Little Aloha (2001) [FLAC] {A Guava Ding Thing}\06 - Rock Me.wav

Peak level 99.9 %
Extraction speed 4.2 X
Track quality 100.0 %
Test CRC 3E9DBFF5
Copy CRC 3E9DBFF5
Cannot be verified as accurate (confidence 2) [BE511E6E], AccurateRip returned [3DF4C9B1] (AR v2)
Copy OK

Track 7

Filename C:\My Documents\My FLAC\The Mana'o Company - Spread A Little Aloha (2001) [FLAC] {A Guava Ding Thing}\07 - Rollin' Down Town.wav

Peak level 99.9 %
Extraction speed 4.3 X
Track quality 100.0 %
Test CRC 3B6B175C
Copy CRC 3B6B175C
Cannot be verified as accurate (confidence 2) [E25BCABF], AccurateRip returned [90FF4295] (AR v2)
Copy OK

Track 8

Filename C:\My Documents\My FLAC\The Mana'o Company - Spread A Little Aloha (2001) [FLAC] {A Guava Ding Thing}\08 - Back In The Day.wav

Peak level 99.6 %
Extraction speed 4.6 X
Track quality 100.0 %
Test CRC 662E14D8
Copy CRC 662E14D8
Cannot be verified as accurate (confidence 2) [13C3DFA2], AccurateRip returned [C9E2A208] (AR v2)
Copy OK

Track 9

Filename C:\My Documents\My FLAC\The Mana'o Company - Spread A Little Aloha (2001) [FLAC] {A Guava Ding Thing}\09 - Steppin' Out, Hawaiian Children.wav

Peak level 99.9 %
Extraction speed 4.7 X
Track quality 100.0 %
Test CRC 2DAFAC41
Copy CRC 2DAFAC41
Cannot be verified as accurate (confidence 2) [80BAE48A], AccurateRip returned [5DC2F68C] (AR v2)
Copy OK

Track 10

Filename C:\My Documents\My FLAC\The Mana'o Company - Spread A Little Aloha (2001) [FLAC] {A Guava Ding Thing}\10 - Sweet Reggae Woman.wav

Peak level 99.9 %
Extraction speed 4.4 X
Track quality 99.9 %
Test CRC 3EC9A28C
Copy CRC 3EC9A28C
Cannot be verified as accurate (confidence 2) [A678CB09], AccurateRip returned [D9C3AF52] (AR v2)
Copy OK

Track 11

Filename C:\My Documents\My FLAC\The Mana'o Company - Spread A Little Aloha (2001) [FLAC] {A Guava Ding Thing}\11 - Babe.wav

Peak level 93.6 %
Extraction speed 4.5 X
Track quality 99.9 %
Test CRC D3A49F20
Copy CRC D3A49F20
Cannot be verified as accurate (confidence 2) [E2BEF26F], AccurateRip returned [E0930198] (AR v2)
Copy OK

Track 12

Filename C:\My Documents\My FLAC\The Mana'o Company - Spread A Little Aloha (2001) [FLAC] {A Guava Ding Thing}\12 - He Will Carry You.wav

Peak level 81.7 %
Extraction speed 5.2 X
Track quality 100.0 %
Test CRC D78A9C6E
Copy CRC D78A9C6E
Cannot be verified as accurate (confidence 2) [A962552C], AccurateRip returned [590041D2] (AR v2)
Copy OK

Track 13

Filename C:\My Documents\My FLAC\The Mana'o Company - Spread A Little Aloha (2001) [FLAC] {A Guava Ding Thing}\13 - 96 Degress In The Shade (Remix).wav

Peak level 99.9 %
Extraction speed 5.6 X
Track quality 100.0 %
Test CRC 1D3DFE00
Copy CRC 1D3DFE00
Cannot be verified as accurate (confidence 2) [3EB08026], AccurateRip returned [9240C09F] (AR v2)
Copy OK


No tracks could be verified as accurate
You may have a different pressing from the one(s) in the database

No errors occurred

End of status report

–– CUETools DB Plugin V2.1.6

[CTDB TOCID: plbVXOzS4FmZAMRPvJm2z6vqto0-] found
Submit result: plbVXOzS4FmZAMRPvJm2z6vqto0- has been confirmed
Track | CTDB Status
1 | (2/2) Accurately ripped
2 | (2/2) Accurately ripped
3 | (2/2) Accurately ripped
4 | (2/2) Accurately ripped
5 | (2/2) Accurately ripped
6 | (2/2) Accurately ripped
7 | (2/2) Accurately ripped
8 | (2/2) Accurately ripped
9 | (2/2) Accurately ripped
10 | (2/2) Accurately ripped
11 | (2/2) Accurately ripped
12 | (2/2) Accurately ripped
13 | (2/2) Accurately ripped


==== Log checksum 3E845F781348186FD8AD94680B56D070B32A5C5D4889B96BA54175A1D9E8DDA3 ====


The Mana'o Company - Spread A Little Aloha (2001) {A Guava Ding Thing} **[RE-UP]**