Subcategories

Man With No Name - Moment Of Truth (1996) {Concept In Dance}

Posted By: TestTickles
Man With No Name - Moment Of Truth (1996) {Concept In Dance}

Man With No Name - Moment Of Truth (1996) {Concept In Dance}
EAC Rip | FLAC with CUE and LOG | scans | 516 mb
MP3 CBR 320 kbps | RAR | 164 mb
Genre: electronica, goa trance

Moment Of Truth is the 1996 CD by Man With No Name. This was released by Concept In Dance.

Man With No Name - Moment Of Truth (1996) {Concept In Dance}

01. Moment Of Truth (6:56)
02. Floor-Essence (Dayglo Mix) (6:06)
03. Subterfuge (5:52)
04. Evolution (6:47)
05. Azymuth (7:55)
06. Low Commotion (6:52)
07. Skydiving (6:05)
08. Dawn Chorus (6:30)
09. Cairo (7:07)
10. Sugar Rush (Refined Mix) (6:08)
11. Cosmic Echoes (6:45)

Exact Audio Copy V1.0 beta 3 from 29. August 2011

EAC extraction logfile from 2. January 2015, 10:21

Man With No Name / Moment Of Truth

Used drive : PLEXTOR DVDR PX-760A Adapter: 1 ID: 0

Read mode : Secure
Utilize accurate stream : Yes
Defeat audio cache : Yes
Make use of C2 pointers : No

Read offset correction : 30
Overread into Lead-In and Lead-Out : No
Fill up missing offset samples with silence : Yes
Delete leading and trailing silent blocks : No
Null samples used in CRC calculations : Yes
Used interface : Native Win32 interface for Win NT & 2000
Gap handling : Appended to previous track

Used output format : User Defined Encoder
Selected bitrate : 128 kBit/s
Quality : High
Add ID3 tag : No
Command line compressor : C:\Program Files (x86)\Exact Audio Copy\Flac\flac.exe
Additional command line options : -V -8 -T "Genre=%genre%" -T "Artist=%artist%" -T "Title=%title%" -T "Album=%albumtitle%" -T "Date=%year%" -T "Tracknumber=%tracknr%" -T "Comment=%comment%" %source%

TOC of the extracted CD

Track | Start | Length | Start sector | End sector
––––––––––––––––––––––––––––-
1 | 0:00.00 | 6:59.00 | 0 | 31424
2 | 6:59.00 | 6:06.17 | 31425 | 58891
3 | 13:05.17 | 5:52.73 | 58892 | 85364
4 | 18:58.15 | 6:49.37 | 85365 | 116076
5 | 25:47.52 | 7:58.45 | 116077 | 151971
6 | 33:46.22 | 6:55.58 | 151972 | 183154
7 | 40:42.05 | 6:08.05 | 183155 | 210759
8 | 46:50.10 | 6:33.35 | 210760 | 240269
9 | 53:23.45 | 7:09.60 | 240270 | 272504
10 | 60:33.30 | 6:11.52 | 272505 | 300381
11 | 66:45.07 | 6:45.20 | 300382 | 330776

Track 1

Filename C:\cuntfist\FLAC\Man With No Name - Moment Of Truth (1996) [FLAC] {Concept In Dance}\01 - Moment Of Truth.wav

Pre-gap length 0:00:02.00

Peak level 100.0 %
Extraction speed 2.3 X
Track quality 100.0 %
Test CRC 599601AE
Copy CRC 599601AE
Accurately ripped (confidence 9) [5A37913C] (AR v2)
Copy OK

Track 2

Filename C:\cuntfist\FLAC\Man With No Name - Moment Of Truth (1996) [FLAC] {Concept In Dance}\02 - Floor-Essence (Dayglo Mix).wav

Pre-gap length 0:00:02.13

Peak level 100.0 %
Extraction speed 2.3 X
Track quality 100.0 %
Test CRC 33A833C4
Copy CRC 33A833C4
Accurately ripped (confidence 8) [063DE373] (AR v2)
Copy OK

Track 3

Filename C:\cuntfist\FLAC\Man With No Name - Moment Of Truth (1996) [FLAC] {Concept In Dance}\03 - Subterfuge.wav

Peak level 100.0 %
Extraction speed 2.3 X
Track quality 100.0 %
Test CRC CEB300F2
Copy CRC CEB300F2
Accurately ripped (confidence 8) [2BA331FC] (AR v2)
Copy OK

Track 4

Filename C:\cuntfist\FLAC\Man With No Name - Moment Of Truth (1996) [FLAC] {Concept In Dance}\04 - Evolution.wav

Peak level 100.0 %
Extraction speed 2.3 X
Track quality 100.0 %
Test CRC 24F86564
Copy CRC 24F86564
Accurately ripped (confidence 8) [AD944257] (AR v2)
Copy OK

Track 5

Filename C:\cuntfist\FLAC\Man With No Name - Moment Of Truth (1996) [FLAC] {Concept In Dance}\05 - Azymuth.wav

Pre-gap length 0:00:02.15

Peak level 100.0 %
Extraction speed 2.3 X
Track quality 100.0 %
Test CRC 6E8EDFA6
Copy CRC 6E8EDFA6
Accurately ripped (confidence 9) [68F60EFC] (AR v2)
Copy OK

Track 6

Filename C:\cuntfist\FLAC\Man With No Name - Moment Of Truth (1996) [FLAC] {Concept In Dance}\06 - Low Commotion.wav

Pre-gap length 0:00:02.47

Peak level 100.0 %
Extraction speed 2.3 X
Track quality 100.0 %
Test CRC 99E13A09
Copy CRC 99E13A09
Accurately ripped (confidence 9) [217D7EDA] (AR v2)
Copy OK

Track 7

Filename C:\cuntfist\FLAC\Man With No Name - Moment Of Truth (1996) [FLAC] {Concept In Dance}\07 - Skydiving.wav

Pre-gap length 0:00:03.55

Peak level 100.0 %
Extraction speed 2.3 X
Track quality 100.0 %
Test CRC 434F38F8
Copy CRC 434F38F8
Accurately ripped (confidence 9) [8A186B2B] (AR v2)
Copy OK

Track 8

Filename C:\cuntfist\FLAC\Man With No Name - Moment Of Truth (1996) [FLAC] {Concept In Dance}\08 - Dawn Chorus.wav

Pre-gap length 0:00:02.35

Peak level 100.0 %
Extraction speed 2.3 X
Track quality 100.0 %
Test CRC CA2DC42D
Copy CRC CA2DC42D
Accurately ripped (confidence 9) [332CB76D] (AR v2)
Copy OK

Track 9

Filename C:\cuntfist\FLAC\Man With No Name - Moment Of Truth (1996) [FLAC] {Concept In Dance}\09 - Cairo.wav

Pre-gap length 0:00:02.45

Peak level 100.0 %
Extraction speed 2.3 X
Track quality 100.0 %
Test CRC D32102EC
Copy CRC D32102EC
Accurately ripped (confidence 9) [FA34B4E7] (AR v2)
Copy OK

Track 10

Filename C:\cuntfist\FLAC\Man With No Name - Moment Of Truth (1996) [FLAC] {Concept In Dance}\10 - Sugar Rush (Refined Mix).wav

Pre-gap length 0:00:01.73

Peak level 100.0 %
Extraction speed 2.3 X
Track quality 100.0 %
Test CRC 422A1C0A
Copy CRC 422A1C0A
Accurately ripped (confidence 8) [4F65E012] (AR v2)
Copy OK

Track 11

Filename C:\cuntfist\FLAC\Man With No Name - Moment Of Truth (1996) [FLAC] {Concept In Dance}\11 - Cosmic Echoes.wav

Pre-gap length 0:00:02.62

Peak level 100.0 %
Extraction speed 2.3 X
Track quality 100.0 %
Test CRC 0CA81F67
Copy CRC 0CA81F67
Accurately ripped (confidence 9) [99B0722A] (AR v2)
Copy OK

All tracks accurately ripped

No errors occurred

End of status report

==== Log checksum 0FEE29DD6F3ED5B4F2E9ABCF1A07CD3F4A71CA0B7076B478E2078C7EB512580B ====


Man With No Name - Moment Of Truth (1996) {Concept In Dance}


Thank you to the original uploader.