Tags
Language
Tags

Marina Rosenfeld: The Sheer Frost Orchestra - Drop, Hop, Drone, Scratch, Slide & A For Anything (2002) {charhizma}

Posted By: TestTickles
Marina Rosenfeld: The Sheer Frost Orchestra - Drop, Hop, Drone, Scratch, Slide & A For Anything (2002) {charhizma}

Marina Rosenfeld: The Sheer Frost Orchestra - Drop, Hop, Drone, Scratch, Slide & A For Anything (2002) {charhizma}
EAC Rip | FLAC with CUE and LOG | scans | 245 mb
MP3 CBR 320 kbps | RAR | 108 mb
Genre: experimental

Drop, Hop, Drone, Scratch, Slide & A For Anything is a 2002 collaboration album between Marina Rosenfeld and The Sheer Frost Orchestra. This was made possible from charhizma.

01. Untitled
02. Untitled
03. Untitled
04. Untitled
05. Untitled
06. Untitled
07. Untitled
08. Untitled
09. Untitled
10. Untitled
11. Untitled
12. Untitled
13. Untitled
14. Untitled
15. Untitled
16. Untitled
17. Untitled
18. Untitled
19. Untitled
20. Untitled
21. Untitled
22. Untitled
23. Untitled
24. Untitled
25. Untitled
26. Untitled
27. Untitled

Exact Audio Copy V1.0 beta 6 from 9. April 2015

EAC extraction logfile from 25. July 2020, 14:36

Marina Rosenfeld: The Sheer Frost Orchestra / Drop, Hop, Drone, Scratch, Slide & A For Anything

Used drive : TSSTcorpDVD+-RW TS-L633C Adapter: 1 ID: 0

Read mode : Secure
Utilize accurate stream : Yes
Defeat audio cache : Yes
Make use of C2 pointers : No

Read offset correction : 6
Overread into Lead-In and Lead-Out : No
Fill up missing offset samples with silence : Yes
Delete leading and trailing silent blocks : No
Null samples used in CRC calculations : Yes
Used interface : Native Win32 interface for Win NT & 2000
Gap handling : Appended to previous track

Used output format : Internal WAV Routines
Sample format : 44.100 Hz; 16 Bit; Stereo


TOC of the extracted CD

Track | Start | Length | Start sector | End sector
––––––––––––––––––––––––––––-
1 | 0:00.00 | 2:36.07 | 0 | 11706
2 | 2:36.07 | 1:29.03 | 11707 | 18384
3 | 4:05.10 | 2:05.12 | 18385 | 27771
4 | 6:10.22 | 2:14.18 | 27772 | 37839
5 | 8:24.40 | 3:09.00 | 37840 | 52014
6 | 11:33.40 | 1:38.20 | 52015 | 59384
7 | 13:11.60 | 0:33.37 | 59385 | 61896
8 | 13:45.22 | 2:06.13 | 61897 | 71359
9 | 15:51.35 | 0:46.12 | 71360 | 74821
10 | 16:37.47 | 2:16.13 | 74822 | 85034
11 | 18:53.60 | 1:31.52 | 85035 | 91911
12 | 20:25.37 | 1:37.33 | 91912 | 99219
13 | 22:02.70 | 1:04.47 | 99220 | 104066
14 | 23:07.42 | 1:44.30 | 104067 | 111896
15 | 24:51.72 | 1:06.63 | 111897 | 116909
16 | 25:58.60 | 2:27.27 | 116910 | 127961
17 | 28:26.12 | 2:47.55 | 127962 | 140541
18 | 31:13.67 | 2:17.30 | 140542 | 150846
19 | 33:31.22 | 2:13.25 | 150847 | 160846
20 | 35:44.47 | 1:39.53 | 160847 | 168324
21 | 37:24.25 | 1:21.52 | 168325 | 174451
22 | 38:46.02 | 2:10.43 | 174452 | 184244
23 | 40:56.45 | 1:39.67 | 184245 | 191736
24 | 42:36.37 | 1:48.60 | 191737 | 199896
25 | 44:25.22 | 1:08.30 | 199897 | 205026
26 | 45:33.52 | 1:19.55 | 205027 | 211006
27 | 46:53.32 | 1:00.51 | 211007 | 215557


Track 1

Filename C:\My Documents\My FLAC\Marina Rosenfeld, The Sheer Frost Orchestra - Drop, Hop, Drone, Scratch, Slide & A For Anything (2002) [FLAC] {charhizma}\01 - Untitled.wav

Pre-gap length 0:00:02.00

Peak level 71.3 %
Extraction speed 1.1 X
Track quality 100.0 %
Test CRC D2970BD6
Copy CRC D2970BD6
Cannot be verified as accurate (confidence 1) [2DB49218], AccurateRip returned [E5610FC1] (AR v2)
Copy OK

Track 2

Filename C:\My Documents\My FLAC\Marina Rosenfeld, The Sheer Frost Orchestra - Drop, Hop, Drone, Scratch, Slide & A For Anything (2002) [FLAC] {charhizma}\02 - Untitled.wav

Peak level 94.4 %
Extraction speed 1.0 X
Track quality 100.0 %
Test CRC 91C5FB41
Copy CRC 91C5FB41
Cannot be verified as accurate (confidence 1) [FD0CF24A], AccurateRip returned [D782B7DA] (AR v2)
Copy OK

Track 3

Filename C:\My Documents\My FLAC\Marina Rosenfeld, The Sheer Frost Orchestra - Drop, Hop, Drone, Scratch, Slide & A For Anything (2002) [FLAC] {charhizma}\03 - Untitled.wav

Peak level 94.7 %
Extraction speed 0.9 X
Track quality 99.9 %
Test CRC BD1DD308
Copy CRC BD1DD308
Cannot be verified as accurate (confidence 1) [EC76D6AF], AccurateRip returned [232CB357] (AR v2)
Copy OK

Track 4

Filename C:\My Documents\My FLAC\Marina Rosenfeld, The Sheer Frost Orchestra - Drop, Hop, Drone, Scratch, Slide & A For Anything (2002) [FLAC] {charhizma}\04 - Untitled.wav

Peak level 94.5 %
Extraction speed 1.2 X
Track quality 100.0 %
Test CRC 5F7AC03F
Copy CRC 5F7AC03F
Cannot be verified as accurate (confidence 1) [D3DE8A01], AccurateRip returned [C122BFD9] (AR v2)
Copy OK

Track 5

Filename C:\My Documents\My FLAC\Marina Rosenfeld, The Sheer Frost Orchestra - Drop, Hop, Drone, Scratch, Slide & A For Anything (2002) [FLAC] {charhizma}\05 - Untitled.wav

Peak level 71.9 %
Extraction speed 1.4 X
Track quality 100.0 %
Test CRC F12AB7A5
Copy CRC F12AB7A5
Cannot be verified as accurate (confidence 1) [654DB766], AccurateRip returned [A51F2BEC] (AR v2)
Copy OK

Track 6

Filename C:\My Documents\My FLAC\Marina Rosenfeld, The Sheer Frost Orchestra - Drop, Hop, Drone, Scratch, Slide & A For Anything (2002) [FLAC] {charhizma}\06 - Untitled.wav

Peak level 94.5 %
Extraction speed 1.0 X
Track quality 99.8 %
Test CRC F951A6DB
Copy CRC F951A6DB
Cannot be verified as accurate (confidence 1) [D1C976E6], AccurateRip returned [4E6768CC] (AR v2)
Copy OK

Track 7

Filename C:\My Documents\My FLAC\Marina Rosenfeld, The Sheer Frost Orchestra - Drop, Hop, Drone, Scratch, Slide & A For Anything (2002) [FLAC] {charhizma}\07 - Untitled.wav

Peak level 94.4 %
Extraction speed 0.8 X
Track quality 100.0 %
Test CRC E2880170
Copy CRC E2880170
Cannot be verified as accurate (confidence 1) [108A665B], AccurateRip returned [4D5295D8] (AR v2)
Copy OK

Track 8

Filename C:\My Documents\My FLAC\Marina Rosenfeld, The Sheer Frost Orchestra - Drop, Hop, Drone, Scratch, Slide & A For Anything (2002) [FLAC] {charhizma}\08 - Untitled.wav

Peak level 94.4 %
Extraction speed 0.8 X
Track quality 99.9 %
Test CRC CB1588EF
Copy CRC CB1588EF
Cannot be verified as accurate (confidence 1) [02F2DAA5], AccurateRip returned [10E403AA] (AR v2)
Copy OK

Track 9

Filename C:\My Documents\My FLAC\Marina Rosenfeld, The Sheer Frost Orchestra - Drop, Hop, Drone, Scratch, Slide & A For Anything (2002) [FLAC] {charhizma}\09 - Untitled.wav

Peak level 94.6 %
Extraction speed 0.7 X
Track quality 99.7 %
Test CRC 8ECC8C26
Copy CRC 8ECC8C26
Cannot be verified as accurate (confidence 1) [77AAA8B9], AccurateRip returned [8F26CC5F] (AR v2)
Copy OK

Track 10

Filename C:\My Documents\My FLAC\Marina Rosenfeld, The Sheer Frost Orchestra - Drop, Hop, Drone, Scratch, Slide & A For Anything (2002) [FLAC] {charhizma}\10 - Untitled.wav

Peak level 94.7 %
Extraction speed 1.5 X
Track quality 100.0 %
Test CRC A04E70EA
Copy CRC A04E70EA
Cannot be verified as accurate (confidence 1) [4801AD3E], AccurateRip returned [C6AA18BF] (AR v2)
Copy OK

Track 11

Filename C:\My Documents\My FLAC\Marina Rosenfeld, The Sheer Frost Orchestra - Drop, Hop, Drone, Scratch, Slide & A For Anything (2002) [FLAC] {charhizma}\11 - Untitled.wav

Peak level 95.0 %
Extraction speed 1.4 X
Track quality 100.0 %
Test CRC 2313818E
Copy CRC 2313818E
Cannot be verified as accurate (confidence 1) [7117E534], AccurateRip returned [2EB7AEAA] (AR v2)
Copy OK

Track 12

Filename C:\My Documents\My FLAC\Marina Rosenfeld, The Sheer Frost Orchestra - Drop, Hop, Drone, Scratch, Slide & A For Anything (2002) [FLAC] {charhizma}\12 - Untitled.wav

Peak level 94.4 %
Extraction speed 1.4 X
Track quality 100.0 %
Test CRC 1C59261F
Copy CRC 1C59261F
Cannot be verified as accurate (confidence 1) [CC624377], AccurateRip returned [64314459] (AR v2)
Copy OK

Track 13

Filename C:\My Documents\My FLAC\Marina Rosenfeld, The Sheer Frost Orchestra - Drop, Hop, Drone, Scratch, Slide & A For Anything (2002) [FLAC] {charhizma}\13 - Untitled.wav

Peak level 65.9 %
Extraction speed 1.2 X
Track quality 100.0 %
Test CRC 00D6379D
Copy CRC 00D6379D
Cannot be verified as accurate (confidence 1) [57245CB4], AccurateRip returned [1B4384C7] (AR v2)
Copy OK

Track 14

Filename C:\My Documents\My FLAC\Marina Rosenfeld, The Sheer Frost Orchestra - Drop, Hop, Drone, Scratch, Slide & A For Anything (2002) [FLAC] {charhizma}\14 - Untitled.wav

Peak level 71.4 %
Extraction speed 1.5 X
Track quality 100.0 %
Test CRC 9C609B79
Copy CRC 9C609B79
Cannot be verified as accurate (confidence 1) [4A5E5919], AccurateRip returned [5AB502E7] (AR v2)
Copy OK

Track 15

Filename C:\My Documents\My FLAC\Marina Rosenfeld, The Sheer Frost Orchestra - Drop, Hop, Drone, Scratch, Slide & A For Anything (2002) [FLAC] {charhizma}\15 - Untitled.wav

Peak level 94.6 %
Extraction speed 1.3 X
Track quality 100.0 %
Test CRC 6782077E
Copy CRC 6782077E
Cannot be verified as accurate (confidence 1) [BA25E13B], AccurateRip returned [73671208] (AR v2)
Copy OK

Track 16

Filename C:\My Documents\My FLAC\Marina Rosenfeld, The Sheer Frost Orchestra - Drop, Hop, Drone, Scratch, Slide & A For Anything (2002) [FLAC] {charhizma}\16 - Untitled.wav

Peak level 94.6 %
Extraction speed 1.4 X
Track quality 99.9 %
Test CRC 5F8E792E
Copy CRC 5F8E792E
Cannot be verified as accurate (confidence 1) [61ECC730], AccurateRip returned [F0BC5941] (AR v2)
Copy OK

Track 17

Filename C:\My Documents\My FLAC\Marina Rosenfeld, The Sheer Frost Orchestra - Drop, Hop, Drone, Scratch, Slide & A For Anything (2002) [FLAC] {charhizma}\17 - Untitled.wav

Peak level 94.4 %
Extraction speed 1.7 X
Track quality 100.0 %
Test CRC 1CA9FB00
Copy CRC 1CA9FB00
Cannot be verified as accurate (confidence 1) [A1CB6328], AccurateRip returned [CCEB1F02] (AR v2)
Copy OK

Track 18

Filename C:\My Documents\My FLAC\Marina Rosenfeld, The Sheer Frost Orchestra - Drop, Hop, Drone, Scratch, Slide & A For Anything (2002) [FLAC] {charhizma}\18 - Untitled.wav

Peak level 94.4 %
Extraction speed 1.7 X
Track quality 100.0 %
Test CRC EAEE2913
Copy CRC EAEE2913
Cannot be verified as accurate (confidence 1) [0ED25ED1], AccurateRip returned [D04CA0A1] (AR v2)
Copy OK

Track 19

Filename C:\My Documents\My FLAC\Marina Rosenfeld, The Sheer Frost Orchestra - Drop, Hop, Drone, Scratch, Slide & A For Anything (2002) [FLAC] {charhizma}\19 - Untitled.wav

Pre-gap length 0:00:00.01

Peak level 94.7 %
Extraction speed 1.8 X
Track quality 100.0 %
Test CRC 927EA10F
Copy CRC 927EA10F
Cannot be verified as accurate (confidence 1) [9A38C061], AccurateRip returned [3DEC8C6D] (AR v2)
Copy OK

Track 20

Filename C:\My Documents\My FLAC\Marina Rosenfeld, The Sheer Frost Orchestra - Drop, Hop, Drone, Scratch, Slide & A For Anything (2002) [FLAC] {charhizma}\20 - Untitled.wav

Peak level 94.4 %
Extraction speed 1.7 X
Track quality 100.0 %
Test CRC 1F7AC87F
Copy CRC 1F7AC87F
Cannot be verified as accurate (confidence 1) [E7985800], AccurateRip returned [DCF7C7BF] (AR v2)
Copy OK

Track 21

Filename C:\My Documents\My FLAC\Marina Rosenfeld, The Sheer Frost Orchestra - Drop, Hop, Drone, Scratch, Slide & A For Anything (2002) [FLAC] {charhizma}\21 - Untitled.wav

Peak level 94.6 %
Extraction speed 1.5 X
Track quality 100.0 %
Test CRC 5F6F2DFA
Copy CRC 5F6F2DFA
Cannot be verified as accurate (confidence 1) [E505BD89], AccurateRip returned [AA2134B4] (AR v2)
Copy OK

Track 22

Filename C:\My Documents\My FLAC\Marina Rosenfeld, The Sheer Frost Orchestra - Drop, Hop, Drone, Scratch, Slide & A For Anything (2002) [FLAC] {charhizma}\22 - Untitled.wav

Peak level 94.6 %
Extraction speed 1.8 X
Track quality 100.0 %
Test CRC 6706873B
Copy CRC 6706873B
Cannot be verified as accurate (confidence 1) [C233F42E], AccurateRip returned [1F19D972] (AR v2)
Copy OK

Track 23

Filename C:\My Documents\My FLAC\Marina Rosenfeld, The Sheer Frost Orchestra - Drop, Hop, Drone, Scratch, Slide & A For Anything (2002) [FLAC] {charhizma}\23 - Untitled.wav

Peak level 84.1 %
Extraction speed 1.7 X
Track quality 100.0 %
Test CRC 43A11AC2
Copy CRC 43A11AC2
Cannot be verified as accurate (confidence 1) [F6C6A0D1], AccurateRip returned [8C0F9BD5] (AR v2)
Copy OK

Track 24

Filename C:\My Documents\My FLAC\Marina Rosenfeld, The Sheer Frost Orchestra - Drop, Hop, Drone, Scratch, Slide & A For Anything (2002) [FLAC] {charhizma}\24 - Untitled.wav

Peak level 94.5 %
Extraction speed 1.8 X
Track quality 100.0 %
Test CRC 7B90C04D
Copy CRC 7B90C04D
Cannot be verified as accurate (confidence 1) [71C75719], AccurateRip returned [F15B6B32] (AR v2)
Copy OK

Track 25

Filename C:\My Documents\My FLAC\Marina Rosenfeld, The Sheer Frost Orchestra - Drop, Hop, Drone, Scratch, Slide & A For Anything (2002) [FLAC] {charhizma}\25 - Untitled.wav

Peak level 81.7 %
Extraction speed 1.1 X
Track quality 99.8 %
Test CRC 95CA12D1
Copy CRC 95CA12D1
Cannot be verified as accurate (confidence 1) [C3AE0DD1], AccurateRip returned [8FCEE99F] (AR v2)
Copy OK

Track 26

Filename C:\My Documents\My FLAC\Marina Rosenfeld, The Sheer Frost Orchestra - Drop, Hop, Drone, Scratch, Slide & A For Anything (2002) [FLAC] {charhizma}\26 - Untitled.wav

Peak level 95.2 %
Extraction speed 1.7 X
Track quality 100.0 %
Test CRC A8A345C7
Copy CRC A8A345C7
Cannot be verified as accurate (confidence 1) [A675F0D4], AccurateRip returned [984921A9] (AR v2)
Copy OK

Track 27

Filename C:\My Documents\My FLAC\Marina Rosenfeld, The Sheer Frost Orchestra - Drop, Hop, Drone, Scratch, Slide & A For Anything (2002) [FLAC] {charhizma}\27 - Untitled.wav

Peak level 94.7 %
Extraction speed 1.5 X
Track quality 100.0 %
Test CRC 18658153
Copy CRC 18658153
Cannot be verified as accurate (confidence 1) [3BA22289], AccurateRip returned [D449C8FE] (AR v2)
Copy OK


No tracks could be verified as accurate
You may have a different pressing from the one(s) in the database

No errors occurred

End of status report

–– CUETools DB Plugin V2.1.6

[CTDB TOCID: .KCEYGN2TsVVa_68.QgtnQKVMbc-] disk not present in database
Submit result: .KCEYGN2TsVVa_68.QgtnQKVMbc- has been uploaded


==== Log checksum A76D1803AC3814E599EFF68493F282E71CAE1AD4C206CF67EA325035940C42AC ====


Marina Rosenfeld: The Sheer Frost Orchestra - Drop, Hop, Drone, Scratch, Slide & A For Anything (2002) {charhizma}