Subcategories

Makoto Ozone - Ozone (1984) Japanese Reissue 2014

Posted By: Designol
Makoto Ozone - Ozone (1984) Japanese Reissue 2014

Makoto Ozone - Ozone (1984) Japanese Reissue 2014
EAC | FLAC | Image (Cue&Log) ~ 242 Mb (incl 5%) | Mp3 (CBR320) ~ 135 Mb (incl 5%) | Scans included
Post-Bop, Piano Jazz, Vibraphone Jazz | Label: Sony Music | # SICP 4234 | Time: 00:52:46

Pianist Makoto Ozone, who was a member of Gary Burton's group at the time, invited the great vibraphonist to his recording debut as a leader, a trio outing with bassist Eddie Gomez. 23 at the time, Ozone already had impressive technique and a generally introspective style that meshed well with Burton. The groups performs five of Ozone's originals (including the two-part "Endless Season"), and even if the results are sometimes a bit sleepy, the pianist does show a lot of potential.

Review by Scott Yanow, Allmusic.com

Makoto Ozone - Ozone (1984) Japanese Reissue 2014



Performers:

Makoto Ozone - piano
Eddie Gomez - bass
Gary Burton - vibraphone

Recorded at Mad Hatter Studio, Los Angeles, CA on June 23-24, 1984.

Tracklist:

01. Crystal Love (06:52)
02. I Need You Here (08:21)
03. Flight (08:16)
04. Endless Season Part I (07:17)
05. Endless Season Part II (08:30)
06. Improvisation (04:38)
07. Corea-Graphy (08:48)


Exact Audio Copy V1.1 from 23. June 2015

EAC extraction logfile from 23. July 2016, 1:47

Makoto Ozone / Ozone

Used drive : ASUS DRW-24B1LT Adapter: 5 ID: 1

Read mode : Secure
Utilize accurate stream : Yes
Defeat audio cache : Yes
Make use of C2 pointers : No

Read offset correction : 6
Overread into Lead-In and Lead-Out : No
Fill up missing offset samples with silence : Yes
Delete leading and trailing silent blocks : No
Null samples used in CRC calculations : Yes
Used interface : Installed external ASPI interface

Used output format : User Defined Encoder
Selected bitrate : 768 kBit/s
Quality : High
Add ID3 tag : No
Command line compressor : C:\Program Files\Exact Audio Copy\Flac\flac.exe
Additional command line options : -8 -V -T "ARTIST=%artist%" -T "TITLE=%title%" -T "ALBUM=%albumtitle%" -T "DATE=%year%" -T "TRACKNUMBER=%tracknr%" -T "TOTALTRACKS=%numtracks%" -T "GENRE=%genre%" -T "ALBUMARTIST=%albumartist%" -T "ALBUM ARTIST=%albumartist%" -T "COMMENT=EAC Secure Mode, Test & Copy, AccurateRip, FLAC -8" %source%


TOC of the extracted CD

Track | Start | Length | Start sector | End sector
––––––––––––––––––––––––––––-
1 | 0:00.00 | 6:52.27 | 0 | 30926
2 | 6:52.27 | 8:21.74 | 30927 | 68575
3 | 15:14.26 | 8:16.51 | 68576 | 105826
4 | 23:31.02 | 7:17.03 | 105827 | 138604
5 | 30:48.05 | 8:30.73 | 138605 | 176927
6 | 39:19.03 | 4:38.16 | 176928 | 197793
7 | 43:57.19 | 8:48.69 | 197794 | 237462


Range status and errors

Selected range

Filename F:\audio\Makoto Ozone - Ozone.wav

Peak level 100.0 %
Extraction speed 3.0 X
Range quality 100.0 %
Test CRC 288829AB
Copy CRC 288829AB
Copy OK

No errors occurred


AccurateRip summary

Track 1 accurately ripped (confidence 1) [2B0D4A0A] (AR v2)
Track 2 accurately ripped (confidence 1) [5E1A87EC] (AR v2)
Track 3 accurately ripped (confidence 1) [7611206E] (AR v2)
Track 4 accurately ripped (confidence 1) [6E190760] (AR v2)
Track 5 accurately ripped (confidence 1) [B51C4C86] (AR v2)
Track 6 accurately ripped (confidence 1) [3F0C8191] (AR v2)
Track 7 accurately ripped (confidence 1) [6960E017] (AR v2)

All tracks accurately ripped

End of status report

–– CUETools DB Plugin V2.1.6

[CTDB TOCID: OUaMgBYyCykwQr69kyuD9jL1vF0-] found
Submit result: OUaMgBYyCykwQr69kyuD9jL1vF0- has been confirmed
Track | CTDB Status
1 | (4/4) Accurately ripped
2 | (4/4) Accurately ripped
3 | (4/4) Accurately ripped
4 | (4/4) Accurately ripped
5 | (4/4) Accurately ripped
6 | (4/4) Accurately ripped
7 | (4/4) Accurately ripped


==== Log checksum DB16A1E5FF9787D978011FE14091A9E4B90A7F2590F690942E06D00CEA3C3104 ====

foobar2000 1.2 / Dynamic Range Meter 1.1.1
log date: 2016-07-28 13:44:23

––––––––––––––––––––––––––––––––––––––––
Analyzed: Makoto Ozone / Ozone
––––––––––––––––––––––––––––––––––––––––

DR Peak RMS Duration Track
––––––––––––––––––––––––––––––––––––––––
DR13 0.00 dB -16.01 dB 6:52 01-Crystal Love
DR15 0.00 dB -20.11 dB 8:22 02-I Need You Here
DR14 -1.28 dB -20.48 dB 8:17 03-Flight
DR13 -2.56 dB -19.65 dB 7:17 04-Endless Season Part I
DR13 0.00 dB -17.22 dB 8:31 05-Endless Season Part II
DR14 -3.26 dB -23.93 dB 4:38 06-Improvisation
DR13 -0.02 dB -18.21 dB 8:49 07-Corea-Graphy
––––––––––––––––––––––––––––––––––––––––

Number of tracks: 7
Official DR value: DR14

Samplerate: 44100 Hz
Channels: 2
Bits per sample: 16
Bitrate: 533 kbps
Codec: FLAC
================================================================================

Makoto Ozone - Ozone (1984) Japanese Reissue 2014

Makoto Ozone - Ozone (1984) Japanese Reissue 2014

All thanks to original releaser - fiks22

More interesting music in My Blog

FileJoker:

MOzone84re14.flac.rar

MOzone84re14.mp3.rar

Password: designol