Tags
Language
Tags

Man Doki Soulmates - Aquarelle (2009)

Posted By: JET 1
Man Doki Soulmates - Aquarelle (2009)

Man Doki Soulmates - Aquarelle (2009)
EAC Rip | FLAC (Tracks) +CUE, LOG | 574 MB | Scans
Genre: Jazz Rock, Fusion | Label: NEO / Sony Records | Catalog Number: 88697 56607 2

In 1991, Ian Anderson, Jack Bruce, and Al Di Meola became founding members of Leslie Mandoki’s band project ManDoki Soulmates, and for almost three decades, Leslie Mandoki has continued to unite a “who is who” of the icons of Anglo-American and European rock and jazz- rock in the Mandoki Soulmates band.
The remarkable lineups in the band’s recordings and performances over the years has included singers and players including Ian Anderson, Jack Bruce, David Clayton-Thomas, Chaka Khan, Chris Thompson, Bobby Kimball and Steve Lukather, Nick van Eede, Eric Burdon, Nik Kershaw, Greg Lake, Al di Meola, Randy and Michael Brecker, Cory Henry, Bill Evans, John Helliwell, Till Brönner, Klaus Doldinger, Mike Stern, Richard Bona, Anthony Jackson, Victor Bailey, Pino Palladino, Tony Carey, Mark Hart, Paul Carrack, Peter Frampton, and Jon Lord.
The Soulmates concerts are marked by the musical synergy of all these musical icons united in one supergroup of Grammy award winning legends, where everyone’s egos come second. Original Soulmates compositions and collective improvisations on highest levels are just as much part of the concerts as world-renowned hits of the individual Soulmates members. “One stage – one band!”
With his Soulmates Leslie Mandoki raises Jazz-Rock back to socio-political relevance, to quote him in his own words: “Even in times of Twitter, social media and short news on the smartphone, when mental laziness often blocks the perception, music for us is still like a love letter to our audience – handwritten with ink on paper.”
This band is pure sophisticated JazzRock, or as Greg Lake (Emerson, Lake & Palmer) put it: “One of the best bands you will ever hear!”

Exact Audio Copy V0.99 prebeta 4 from 23. January 2008

EAC Auslese-Logdatei vom 10. September 2009, 17:22

Man Doki Soulmates / Aquarelle

Benutztes Laufwerk : HL-DT-STDVDRAM GH20LS15 Adapter: 2 ID: 0

Lesemodus : Sicher
Benutze Accurate Stream : Ja
Audio Puffer abgeschaltet : Ja
Benutze C2 Fehlerinformationen : Nein

Leseoffset Korrektur : 667
Überlesen in das Lead-In und Lead-Out : Nein
Fülle fehlende Offsetsample mit Stille auf : Ja
Lösche führende und nachfolgende stille Blöcke : Nein
Null Samples gehen in CRC Berechnungen ein : Ja
Benutzte Schnittstelle : Installierte externe ASPI Schnittstelle
Pausenbehandlung : Hinter dem vorigen Track angehängt

Benutztes Ausgabeformat : Benutzerdefinierter Komprimierer
Gewählte Bitrate : 768 kBit/s
Qualität : Hoch
Füge ID3 Tag hinzu : Nein
Kommandozeilen Komprimierer : C:\Programme\Exact Audio Copy\FLAC\FLAC.EXE
Zusätzliche Kommandozeilenoptionen : -6 -V -T "ARTIST=%a" -T "TITLE=%t" -T "ALBUM=%g" -T "DATE=%y" -T "TRACKNUMBER=%n" -T "GENRE=%m" -T "COMMENT=%e" %s -o %d


TOC der ausgelesenen CD

Track | Start | Länge | Startsektor | Endsektor
–––––––––––––––––––––––––––-
1 | 0:00.00 | 3:57.10 | 0 | 17784
2 | 3:57.10 | 3:56.33 | 17785 | 35517
3 | 7:53.43 | 10:07.64 | 35518 | 81106
4 | 18:01.32 | 4:25.25 | 81107 | 101006
5 | 22:26.57 | 9:35.07 | 101007 | 144138
6 | 32:01.64 | 7:11.18 | 144139 | 176481
7 | 39:13.07 | 3:26.73 | 176482 | 192004
8 | 42:40.05 | 6:49.60 | 192005 | 222739
9 | 49:29.65 | 9:43.66 | 222740 | 266530
10 | 59:13.56 | 3:07.30 | 266531 | 280585
11 | 62:21.11 | 13:39.02 | 280586 | 342012


Track 1

Dateiname S:\EAC\01 After The Flood.wav

Pausenlänge 0:00:02.00

Spitzenpegel 100.0 %
Track Qualität 100.0 %
Test CRC 4C52C140
Kopie CRC 4C52C140
Track ist nicht enthalten in der AccurateRip Datenbank
Kopie OK

Track 2

Dateiname S:\EAC\02 More Life To Life.wav

Spitzenpegel 100.0 %
Track Qualität 99.9 %
Test CRC 5206E80A
Kopie CRC 5206E80A
Track ist nicht enthalten in der AccurateRip Datenbank
Kopie OK

Track 3

Dateiname S:\EAC\03 Haunted.wav

Pausenlänge 0:00:00.14

Spitzenpegel 100.0 %
Track Qualität 100.0 %
Test CRC 0DFAE966
Kopie CRC 0DFAE966
Track ist nicht enthalten in der AccurateRip Datenbank
Kopie OK

Track 4

Dateiname S:\EAC\04 Cruel Wild World.wav

Spitzenpegel 100.0 %
Track Qualität 99.9 %
Test CRC 5E002070
Kopie CRC 5E002070
Track ist nicht enthalten in der AccurateRip Datenbank
Kopie OK

Track 5

Dateiname S:\EAC\05 Faster Than We Need.wav

Pausenlänge 0:00:01.73

Spitzenpegel 100.0 %
Track Qualität 100.0 %
Test CRC ABE884D3
Kopie CRC ABE884D3
Track ist nicht enthalten in der AccurateRip Datenbank
Kopie OK

Track 6

Dateiname S:\EAC\06 Move On.wav

Pausenlänge 0:00:01.11

Spitzenpegel 100.0 %
Track Qualität 100.0 %
Test CRC 286A815F
Kopie CRC 286A815F
Track ist nicht enthalten in der AccurateRip Datenbank
Kopie OK

Track 7

Dateiname S:\EAC\07 Legend.wav

Pausenlänge 0:00:00.56

Spitzenpegel 100.0 %
Track Qualität 100.0 %
Test CRC 34DF4828
Kopie CRC 34DF4828
Track ist nicht enthalten in der AccurateRip Datenbank
Kopie OK

Track 8

Dateiname S:\EAC\08 Café Eclectica.wav

Pausenlänge 0:00:02.08

Spitzenpegel 100.0 %
Track Qualität 100.0 %
Test CRC 7F16649D
Kopie CRC 7F16649D
Track ist nicht enthalten in der AccurateRip Datenbank
Kopie OK

Track 9

Dateiname S:\EAC\09 Aquarelle.wav

Pausenlänge 0:00:01.35

Spitzenpegel 100.0 %
Track Qualität 100.0 %
Test CRC 1753CCD3
Kopie CRC 1753CCD3
Track ist nicht enthalten in der AccurateRip Datenbank
Kopie OK

Track 10

Dateiname S:\EAC\10 Looking Up To Michael.wav

Pausenlänge 0:00:02.39

Spitzenpegel 98.9 %
Track Qualität 100.0 %
Test CRC CD62CFC2
Kopie CRC CD62CFC2
Track ist nicht enthalten in der AccurateRip Datenbank
Kopie OK

Track 11

Dateiname S:\EAC\11 Songs From The Road (Live Recordings).wav

Pausenlänge 0:00:09.09

Spitzenpegel 100.0 %
Track Qualität 100.0 %
Test CRC 2A6BAF92
Kopie CRC 2A6BAF92
Track ist nicht enthalten in der AccurateRip Datenbank
Kopie OK


Keiner der Tracks ist in der AccurateRip Datenbank vorhanden

Keine Fehler aufgetreten

Ende des Statusreports

Tracklist ::::
1. After The Flood
2. More Life To Live
3. Haunted
4. Cruel Wild World
5. Faster Than We Need
6. Move On
7. Legend
8. Cafe Eclectica
9. Aquarelle
10. Looking Up To Michael
11. Songs From The Road (live)

Personnel ::::
LESLIE MANDOKI - vocals, drums, percussion & udu
LASZLO BENCKER - keyboards, grand-piano, hammond organ
BOBBY KIMBALL - vocals
CHRIS THOMPSON - vocals
ERIC BURDON - vocals
DAVID CLAYTON-THOMAS - vocals
PETER MAFFAY - vocals
IAN ANDERSON - vocals & flute
JACK BRUCE - vocals & bass
CHAKA KHAN - vocals
NICK VAN EEDE - vocals
STEVE LUKATHER - vocals & guitar
NIK KERSHAW - vocals & guitar
AL DI MEOLA - guitars
MIKE STERN - guitars
STEVE KHAN - guitars
TILL BRÖNNER trumpet
RANDY BRECKER - trumpet & flugelhorn
MICHAEL BRECKER - tenor saxophone
BILL EVANS - tenor & soprano saxophone
JOHN HELLIWELL - tenor & alto saxophone
VICTOR BAILEY - bass
ANTHONY JACKSON - bass
PINO PALLADINO - bass