Subcategories

Manu Katche - Manu Katche (2012) {ECM 2284}

Posted By: tiburon
Manu Katche - Manu Katche (2012) {ECM 2284}

Manu Katche - Manu Katche (2012) {ECM 2284}
EAC 1.0b3 | FLAC tracks level 8 | Cue+Log+M3U | Full Scans 300dpi | 336MB + 5% Recovery
MP3 CBR 320 Kbps | 119MB + 5% Recovery
Genre: Jazz, Fusion

For his fourth ECM album, titled just “Manu Katché”, the great French-Ivorian drummer reshuffles the line-up of his band once more, and presents a new programme of compact, self-penned tunes. The revolving door policy is part of Katché’s songwriting concept: “If you write all your own music, you’re aware of your limitations. It helps to have a changing cast of musicians, because they naturally bring in things you wouldn’t have expected. It’s really been the idea since the first album [2004’s “Neighbourhood”] to keep on changing the band.” Choices of musicians have usually been inspired by meetings and encounters. “I’ll get to play with someone and then try to have his style, or at least the essence of his style, in mind when I write the music at the piano.”
Track List
01. Running After Years 6:23
02. Bliss 4:22
03. Loving You 4:38
04. Walking By Your Side 5:31
05. Imprint 5:19
06. Short Ride 4:05
07. Beats & Bounce 8:28
08. Slowing The Tides 5:36
09. Loose 5:28
10. Dusk On Carnon 2:20

musicians
Manu Katché - drums, piano
Nils Petter Molvær - trumpet, loops
Tore Brunborg - tenor and soprano saxophones
Jim Watson - piano, Hammond B3

Produced by Manfred Eicher


Exact Audio Copy V1.0 beta 3 from 29. August 2011

EAC extraction logfile from 31. October 2012, 15:32

Manu Katche / Manu Katche

Used drive : PIONEER DVD-RW DVR-111D Adapter: 5 ID: 1

Read mode : Secure
Utilize accurate stream : Yes
Defeat audio cache : Yes
Make use of C2 pointers : No

Read offset correction : 48
Overread into Lead-In and Lead-Out : No
Fill up missing offset samples with silence : Yes
Delete leading and trailing silent blocks : No
Null samples used in CRC calculations : Yes
Used interface : Native Win32 interface for Win NT & 2000
Gap handling : Appended to previous track

Used output format : User Defined Encoder
Selected bitrate : 256 kBit/s
Quality : High
Add ID3 tag : No
Command line compressor : C:\Archivos de programa\Exact Audio Copy\FLAC\FLAC.EXE
Additional command line options : -8 -V -T "ARTIST=%artist%" -T "TITLE=%title%" -T "ALBUM=%albumtitle%" -T "DATE=%year%" -T "TRACKNUMBER=%tracknr%" -T "TOTALTRACKS=%numtracks%" -T "GENRE=%genre%" -T "ALBUMARTIST=%albumartist%" -T "ALBUM ARTIST=%albumartist%" -T "COMMENT=EAC Secure Mode, Test & Copy, AccurateRip, FLAC -8" %source%


TOC of the extracted CD

Track | Start | Length | Start sector | End sector
––––––––––––––––––––––––––––-
1 | 0:00.00 | 6:22.74 | 0 | 28723
2 | 6:22.74 | 4:22.13 | 28724 | 48386
3 | 10:45.12 | 4:38.62 | 48387 | 69298
4 | 15:23.74 | 5:31.66 | 69299 | 94189
5 | 20:55.65 | 5:19.59 | 94190 | 118173
6 | 26:15.49 | 4:05.00 | 118174 | 136548
7 | 30:20.49 | 8:28.00 | 136549 | 174648
8 | 38:48.49 | 5:36.24 | 174649 | 199872
9 | 44:24.73 | 5:28.00 | 199873 | 224472
10 | 49:52.73 | 2:20.01 | 224473 | 234973


Track 1

Filename D:\flac rips\01 - Running After Years.wav

Pre-gap length 0:00:02.00

Peak level 97.8 %
Extraction speed 4.9 X
Track quality 100.0 %
Test CRC EA943976
Copy CRC EA943976
Track not present in AccurateRip database
Copy OK

Track 2

Filename D:\flac rips\02 - Bliss.wav

Peak level 96.9 %
Extraction speed 5.3 X
Track quality 100.0 %
Test CRC 0842BDDF
Copy CRC 0842BDDF
Track not present in AccurateRip database
Copy OK

Track 3

Filename D:\flac rips\03 - Loving You.wav

Peak level 97.0 %
Extraction speed 5.8 X
Track quality 100.0 %
Test CRC 7F87187D
Copy CRC 7F87187D
Track not present in AccurateRip database
Copy OK

Track 4

Filename D:\flac rips\04 - Walking By Your Side.wav

Peak level 99.1 %
Extraction speed 6.3 X
Track quality 100.0 %
Test CRC C5195603
Copy CRC C5195603
Track not present in AccurateRip database
Copy OK

Track 5

Filename D:\flac rips\05 - Imprint.wav

Peak level 97.4 %
Extraction speed 6.7 X
Track quality 100.0 %
Test CRC C3495682
Copy CRC C3495682
Track not present in AccurateRip database
Copy OK

Track 6

Filename D:\flac rips\06 - Short Ride.wav

Peak level 97.9 %
Extraction speed 6.1 X
Track quality 99.9 %
Test CRC 14D17489
Copy CRC 14D17489
Track not present in AccurateRip database
Copy OK

Track 7

Filename D:\flac rips\07 - Beats & Bounce.wav

Peak level 97.5 %
Extraction speed 7.8 X
Track quality 100.0 %
Test CRC EE10BA3A
Copy CRC EE10BA3A
Track not present in AccurateRip database
Copy OK

Track 8

Filename D:\flac rips\08 - Slowing The Tides.wav

Peak level 97.4 %
Extraction speed 7.2 X
Track quality 99.9 %
Test CRC 00AF6917
Copy CRC 00AF6917
Track not present in AccurateRip database
Copy OK

Track 9

Filename D:\flac rips\09 - Loose.wav

Peak level 98.2 %
Extraction speed 7.5 X
Track quality 99.9 %
Test CRC 1D13E779
Copy CRC 1D13E779
Track not present in AccurateRip database
Copy OK

Track 10

Filename D:\flac rips\10 - Dusk on Carnon.wav

Peak level 39.7 %
Extraction speed 7.3 X
Track quality 100.0 %
Test CRC AEB6B4DA
Copy CRC AEB6B4DA
Track not present in AccurateRip database
Copy OK


None of the tracks are present in the AccurateRip database

No errors occurred

End of status report

==== Log checksum 04A1D6D8DFB8D2BDABAD315A951544B97BA7CE6338BC43C2D61D9C0B08D12936 ====


––––––––––––––––––––––––––––––––––––––––
Analyzed: Manu Katche / Manu Katche
––––––––––––––––––––––––––––––––––––––––

DR Peak RMS Duration Track
––––––––––––––––––––––––––––––––––––––––
DR11 -0.19 dB -13.98 dB 6:23 01-Running After Years
DR14 -0.27 dB -16.54 dB 4:22 02-Bliss
DR12 -0.26 dB -16.72 dB 4:39 03-Loving You
DR10 -0.07 dB -12.90 dB 5:32 04-Walking By Your Side
DR12 -0.23 dB -16.20 dB 5:20 05-Imprint
DR11 -0.18 dB -14.62 dB 4:05 06-Short Ride
DR12 -0.22 dB -14.24 dB 8:28 07-Beats & Bounce
DR12 -0.23 dB -15.37 dB 5:36 08-Slowing The Tides
DR11 -0.15 dB -13.55 dB 5:28 09-Loose
DR12 -8.01 dB -25.41 dB 2:20 10-Dusk on Carnon
––––––––––––––––––––––––––––––––––––––––

Number of tracks: 10
Official DR value: DR12

Samplerate: 44100 Hz
Channels: 2
Bits per sample: 16
Bitrate: 414 kbps
Codec: FLAC
================================================================================

Manu Katche - Manu Katche (2012) 			  		  		  		 	 	  	 			   		   	  		 			  		 	 	  	 			   		   	  		  		  		  		  	 			   		   	  		  	   		 						 {ECM 2284}
Manu Katche - Manu Katche (2012) {ECM 2284}
Manu Katche - Manu Katche (2012) {ECM 2284}


Thanks to the original ripper