Subcategories

Marc-Aandré Hamelin - Godowsky: Piano Sonata, Passacaglia (2002)

Posted By: tirexiss
Marc-Aandré Hamelin - Godowsky: Piano Sonata, Passacaglia (2002)

Marc-Aandré Hamelin - Godowsky: Piano Sonata, Passacaglia (2002)
EAC | FLAC (image+.cue, log) | Covers Included | 01:05:59 | 247 MB
Genre: Classical | Label: Hyperion | Catalog: 67300

Perhaps it's true that Vladimir Horowitz claimed Leopold Godowsky's 1928 Passacaglia "impossible to play." That hasn't stopped brilliant, note-gobbling supervirtuosos from taking up its uncommon cause. The work treats the opening measure's of Schubert's "Unfinished" Symphony as a ground bass from which 44 variations and a gigantic fugue evolve. The increasingly elaborate, upholstered textures and harmonic purple prose often suggest Max Reger huffing and puffing his way through the Gershwin songbook, leaving little time to relax or breathe. Fortunately, Marc-André Hamelin channels his envious technique toward the most effective musical ends, taking more time with transitions than he did on his first recording of the work in 1988 and lingering just enough over lyrical passages. He unleashes intense heat in the demanding cadenza, yet keeps his scurrying fingers cool and controlled. Hamelin's unflinching proficiency and ability to handle the most taxing keyboard figurations with utter nonchalance brilliantly serve Godowsky's rambling, five-movement behemoth of a Piano Sonata. His only significant competition comes from Konstantin Scherbakov on Marco Polo, whose phrase inflections and dynamic surges tend to soften the music's grip. This is particularly telling in the Andante Cantabile, which contrasts with Hamelin's swifter, more fluid dispatch. Hamelin also keeps things moving by wisely forgoing Godowsky's superfluous repeats in the first and third movements, while Scherbakov observes them, to less convincing musical effect. It is churlish to say that no pianist need record these works again, yet future Godowsky players will have to practice to the bone in order to match, let alone surpass, Hamelin's reference versions. – Jed Distler

Marc-Aandré Hamelin - Godowsky: Piano Sonata, Passacaglia (2002)

Track List:

01. Piano Sonata in E minor: I. Allegro no troppo, ma appassionato [0:14:43.65]
02. Piano Sonata in E minor: II. Andante cantabile [0:07:10.65]
03. Piano Sonata in E minor: III. Allegro vivace e scherzando [0:03:33.47]
04. Piano Sonata in E minor: IV. Allegretto grazioso e dolce [0:04:21.48]
05. Retrospect: Lento, mesto - Fuga: Molto espressivo (l'istesso tempo) [0:17:25.15]
06. Passacaglia (44 variations on Schubert's 'Unfinished' Symphony) [0:18:47.15]

Performers:
Marc-Aandré Hamelin - piano

Exact Audio Copy V1.0 beta 3 from 29. August 2011

EAC extraction logfile from 12. November 2012, 20:42

Marc-André Hamelin / Godowsky – Piano Sonata, Passacaglia – Hamelin

Used drive : TSSTcorpCDDVDW SH-222BB Adapter: 2 ID: 1

Read mode : Secure
Utilize accurate stream : Yes
Defeat audio cache : Yes
Make use of C2 pointers : No

Read offset correction : 6
Overread into Lead-In and Lead-Out : No
Fill up missing offset samples with silence : Yes
Delete leading and trailing silent blocks : No
Null samples used in CRC calculations : Yes
Used interface : Native Win32 interface for Win NT & 2000

Used output format : User Defined Encoder
Selected bitrate : 1024 kBit/s
Quality : High
Add ID3 tag : No
Command line compressor : C:\Program Files\Exact Audio Copy\Flac\flac.exe
Additional command line options : -8 -V -T "TITLE=%title%" -T "ARTIST=%artist%" -T "ALBUMARTIST=%albumartist%" -T "ALBUM=%albumtitle%" -T "DATE=%year%" -T "TRACKNUMBER=%tracknr%" -T "TRACKTOTAL=%numtracks%" -T "GENRE=%genre%" -T "COMMENT=%comment%" -T "PERFORMER=%albuminterpret%" -T "COMPOSER=%composer%" %source% -o %dest%


TOC of the extracted CD

Track | Start | Length | Start sector | End sector
––––––––––––––––––––––––––––-
1 | 0:00.00 | 14:43.65 | 0 | 66289
2 | 14:43.65 | 7:10.65 | 66290 | 98604
3 | 21:54.55 | 3:33.47 | 98605 | 114626
4 | 25:28.27 | 4:21.48 | 114627 | 134249
5 | 29:50.00 | 17:25.15 | 134250 | 212639
6 | 47:15.15 | 18:47.15 | 212640 | 297179


Range status and errors

Selected range

Filename G:\Ripped general\[3800] Godowsky – Piano Sonata, Passacaglia – Hamelin\Godowsky – Piano Sonata, Passacaglia – Hamelin.wav

Peak level 59.0 %
Extraction speed 4.4 X
Range quality 99.9 %
Test CRC 6FBE56E6
Copy CRC 6FBE56E6
Copy OK

No errors occurred


AccurateRip summary

Track 1 accurately ripped (confidence 4) [18135B57] (AR v2)
Track 2 accurately ripped (confidence 4) [69B199E3] (AR v2)
Track 3 accurately ripped (confidence 4) [47C10612] (AR v2)
Track 4 accurately ripped (confidence 4) [4832BFAF] (AR v2)
Track 5 accurately ripped (confidence 4) [07AA0913] (AR v2)
Track 6 accurately ripped (confidence 4) [D429DE6C] (AR v2)

All tracks accurately ripped

End of status report

Thanks to the Original ripper (unknown)!

Welcome to my blog!

Download: