Tags
Language
Tags

Marcelle Meyer - Les Introuvables de Marcelle Meyer, Vol. 2 (1994)

Posted By: tirexiss
Marcelle Meyer - Les Introuvables de Marcelle Meyer, Vol. 2 (1994)

Marcelle Meyer - Les Introuvables de Marcelle Meyer, Vol. 2 (1994)
EAC | FLAC (image+.cue, log) | Covers Included | 04:35:00 | 945 MB
Genre: Classical | Label: EMI Classics | Catalog: 7243 5 68093 2 1

The French pianist Marcelle Meyer made these recordings of music by Francois Couperin, Rameau, Domenico Scarlatti and Rossini in Paris between 1946 and 1955. Celebrated for her performances of French piano music, notably perhaps that of Chabrier, Debussy and Ravel, Meyer was none the less a zealous champion of the eighteenth-century harpsichordists. Bach's keyboard music played an important part in her daily studies and, together with Couperin, Rameau and Scarlatti, occupied a significant place in her public recital programmes. Unlike her contemporary, Wanda Landowska, Meyer had no mission to rehabilitate the harpsichord, but simply treasured its repertoire on its own merit and was indefatigable in her determination to bring it before as wide an audience as possible. Her recording of Rameau's Pieces de clavecin was reissued on two LPs in EMI's excellent References series in 1983 (not generally obtainable in the UK) to mark the 300th anniversary of the composer's birth; much else here, though, has not been available for considerably longer.
Meyer's Rameau is full of poetic insight, illuminatingly expressive but devoid of any misplaced sentimentality. But inevitably, the more stylistically and technically advanced pieces of the 1724 and c1729 collections fare better on a modern piano than the miniatures of the 1706 anthology, which remains more firmly rooted in the harpsichordist's realm. That is not to say, however, that Meyer glosses over them in any way – the two Allemandes, for example, are charmingly played – but that movements such as the initial ''Prelude non mesure'' simply do not make coherent sense on the piano. No, it is not here but in pieces such as ''Les tendres plaintes'', ''Les niais de Sologne'' and its double, ''Les tourbillons'' (all from the 1724 Suite), the Gavotte in A minor with its variations, ''Les trois mains'' (Suite in A minor, c1729), ''L'Egyptienne'' (Suite in G) with its Scarlatti-like scale passages, ''Les Cyclopes'' and ''Les Soupirs'' (both from the Suite in D), that Meyer's extraordinary sensibility lures us convincingly into the pianist's world. Only ''La Villageoise'' (Suite in E minor), perhaps, disappointed me on account of her forcefully emphatic view of a piece in which I sense a greater degree of lyricism than she allows.
The other chief beneficiary of this precious four-disc compilation is Domenico Scarlatti, 32 of whose sonatas Meyer recorded in the 1950s. Not a single disappointment awaits the listener here. Her athletic technique, her love of clearly defined articulation and her unfailingly lucid textures are but among the more obvious qualities in her playing; over and above that are her ability to capture and sustain a particular effect and her feeling for the underlying poetry of Scarlatti's music. I have listened to these performances many times over with ever increasing enjoyment. Her selection from Scarlatti's vast keyboard treasure-trove was discerning and must often have seemed in those days well off the beaten track.
There are delights, too, to be found among the Couperin pieces – Meyer carefully chose those which lend themselves to the piano – and a selection of five pieces from Rossini's Peches de ma vieillesse; but it is chiefly for the Rameau and Scarlatti that this set of discs occupies a place of high interest. Meyer, as I say, was an artist who was skilled in evoking a wide spectrum of moods but it was in the evocation of that quietly contemplative, melancholy spirit, perhaps recalling the paintings of her contemporary, Marie Laurencin, that she excelled. The discs have been carefully and effectively remastered and the warm, intimate sound of the piano is a constant pleasure. Strongly recommended.

Marcelle Meyer - Les Introuvables de Marcelle Meyer, Vol. 2 (1994)

Track List:

CD1
Jean-Philippe Rameau
01-09. Premier Livre de Pieces de clavecin
10-19. Suite en mi mineur
20-29. Suite en Re majeur
30-33. Suite en la mineur

CD2
Jean-Philippe Rameau
01-03. Suite en la mineur
04-12. Suite en sol majeur
13-16. Pieces en concert
François Couperin
17. Le Dodo ou l’amour au berceau
18. Les barricades myst rieuses
19. Les fauvettes plaintives
20. Les ombres errentes
21. Le Tic Toc Choc ou les maillotins
22. La Muse plantine
23. L’Arlequine
24. Les follies fran aises, ou les Dominos
25. Passacaille

CD3
Domenico Scarlatti
01-20. 20 Sonates

CD4
Domenico Scarlatti
01-12. 12 Sonates
Gioachino Rossini
Les Peches de ma vieillesse
13. I Prelude pretentieux
14. II Un regret, un espoir
15. III La Savoie aimante
16. IV Un saute
17. V Ouf, les petits pois!

Performers:
Marcelle Meyer (piano)

Exact Audio Copy V1.3 from 2. September 2016

EAC extraction logfile from 9. December 2019, 13:10

Marcelle Meyer / Les Rarissimes de Marcelle Meyer

Used drive : HL-DT-STDVDRAM GH24NSD5 Adapter: 1 ID: 0

Read mode : Secure
Utilize accurate stream : Yes
Defeat audio cache : Yes
Make use of C2 pointers : No

Read offset correction : 6
Overread into Lead-In and Lead-Out : No
Fill up missing offset samples with silence : Yes
Delete leading and trailing silent blocks : No
Null samples used in CRC calculations : Yes
Used interface : Native Win32 interface for Win NT & 2000

Used output format : User Defined Encoder
Selected bitrate : 896 kBit/s
Quality : High
Add ID3 tag : No
Command line compressor : C:\Program Files (x86)\Exact Audio Copy\FLAC\FLAC.EXE
Additional command line options : -6 -V -T "ARTIST=%artist%" -T "TITLE=%title%" -T "ALBUM=%albumtitle%" -T "DATE=%year%" -T "TRACKNUMBER=%tracknr%" -T "GENRE=%genre%" -T "COMMENT=%comment%" -T "BAND=%albuminterpret%" -T "ALBUMARTIST=%albuminterpret%" -T "COMPOSER=%composer%" %haslyrics%–tag-from-file=LYRICS="%lyricsfile%"%haslyrics% -T "DISCNUMBER=%cdnumber%" -T "TOTALDISCS=%totalcds%" -T "TOTALTRACKS=%numtracks%" %hascover%–picture="%coverfile%"%hascover% %source% -o %dest%


TOC of the extracted CD

Track | Start | Length | Start sector | End sector
––––––––––––––––––––––––––––-
1 | 0:00.32 | 3:05.58 | 32 | 13964
2 | 3:06.15 | 1:43.42 | 13965 | 21731
3 | 4:49.57 | 1:41.60 | 21732 | 29366
4 | 6:31.42 | 1:44.10 | 29367 | 37176
5 | 8:15.52 | 1:35.03 | 37177 | 44304
6 | 9:50.55 | 1:56.12 | 44305 | 53016
7 | 11:46.67 | 1:22.20 | 53017 | 59186
8 | 13:09.12 | 1:25.45 | 59187 | 65606
9 | 14:34.57 | 1:11.60 | 65607 | 70991
10 | 15:46.42 | 0:44.48 | 70992 | 74339
11 | 16:31.15 | 2:29.32 | 74340 | 85546
12 | 19:00.47 | 1:44.55 | 85547 | 93401
13 | 20:45.27 | 1:34.13 | 93402 | 100464
14 | 22:19.40 | 2:19.62 | 100465 | 110951
15 | 24:39.27 | 2:59.33 | 110952 | 124409
16 | 27:38.60 | 1:06.62 | 124410 | 129421
17 | 28:45.47 | 1:54.15 | 129422 | 137986
18 | 30:39.62 | 1:20.20 | 137987 | 144006
19 | 32:00.07 | 1:39.58 | 144007 | 151489
20 | 33:39.65 | 2:37.15 | 151490 | 163279
21 | 36:17.05 | 5:23.67 | 163280 | 187571
22 | 41:40.72 | 5:31.00 | 187572 | 212396
23 | 47:11.72 | 0:49.53 | 212397 | 216124
24 | 48:01.50 | 1:30.22 | 216125 | 222896
25 | 49:31.72 | 4:30.60 | 222897 | 243206
26 | 54:02.57 | 2:08.00 | 243207 | 252806
27 | 56:10.57 | 2:42.70 | 252807 | 265026
28 | 58:53.52 | 0:28.48 | 265027 | 267174
29 | 59:22.25 | 0:33.07 | 267175 | 269656
30 | 59:55.32 | 3:54.00 | 269657 | 287206
31 | 63:49.32 | 4:37.40 | 287207 | 308021
32 | 68:26.72 | 2:08.30 | 308022 | 317651
33 | 70:35.27 | 3:28.40 | 317652 | 333291


Range status and errors

Selected range

Filename H:\Rips\Various - Les Introuvables de Marcelle Meyer Vol. 2 - Meyer\CD1\Marcelle Meyer - Les Rarissimes de Marcelle Meyer (CD1).wav

Peak level 56.8 %
Extraction speed 2.0 X
Range quality 100.0 %
Test CRC F6673ED7
Copy CRC F6673ED7
Copy OK

No errors occurred


AccurateRip summary

Track 1 accurately ripped (confidence 7) [4B817FE7] (AR v2)
Track 2 accurately ripped (confidence 7) [9FB8B1E9] (AR v2)
Track 3 accurately ripped (confidence 7) [4865AEAA] (AR v2)
Track 4 accurately ripped (confidence 7) [B9201835] (AR v2)
Track 5 accurately ripped (confidence 7) [A0800DEB] (AR v2)
Track 6 accurately ripped (confidence 7) [123FFE00] (AR v2)
Track 7 accurately ripped (confidence 7) [D300FA75] (AR v2)
Track 8 accurately ripped (confidence 7) [C201D12B] (AR v2)
Track 9 accurately ripped (confidence 7) [2F7D1ED6] (AR v2)
Track 10 accurately ripped (confidence 7) [CFA342EC] (AR v2)
Track 11 accurately ripped (confidence 7) [F58AD56D] (AR v2)
Track 12 accurately ripped (confidence 7) [E680DCA5] (AR v2)
Track 13 accurately ripped (confidence 7) [C3C8777E] (AR v2)
Track 14 accurately ripped (confidence 7) [DD6D570B] (AR v2)
Track 15 accurately ripped (confidence 7) [4096934F] (AR v2)
Track 16 accurately ripped (confidence 7) [038A79D3] (AR v2)
Track 17 accurately ripped (confidence 7) [87641B29] (AR v2)
Track 18 accurately ripped (confidence 7) [365A4E30] (AR v2)
Track 19 accurately ripped (confidence 7) [D40455AC] (AR v2)
Track 20 accurately ripped (confidence 7) [75B803C7] (AR v2)
Track 21 accurately ripped (confidence 7) [896C4D7B] (AR v2)
Track 22 accurately ripped (confidence 7) [64CA312B] (AR v2)
Track 23 accurately ripped (confidence 7) [225CC00B] (AR v2)
Track 24 accurately ripped (confidence 7) [3D8EAD69] (AR v2)
Track 25 accurately ripped (confidence 7) [1129B66E] (AR v2)
Track 26 accurately ripped (confidence 7) [3447A5F3] (AR v2)
Track 27 accurately ripped (confidence 7) [7495DAF9] (AR v2)
Track 28 accurately ripped (confidence 7) [31CA90FF] (AR v2)
Track 29 accurately ripped (confidence 7) [12EE07A9] (AR v2)
Track 30 accurately ripped (confidence 8) [F9818FEB] (AR v2)
Track 31 accurately ripped (confidence 7) [9D85216F] (AR v2)
Track 32 accurately ripped (confidence 7) [477B5C99] (AR v2)
Track 33 accurately ripped (confidence 7) [77C8AD25] (AR v2)

All tracks accurately ripped

End of status report

–– CUETools DB Plugin V2.1.6

[CTDB TOCID: cYEeRzKUR6b.LeYcoy1iB.Ee1zY-] found
Submit result: cYEeRzKUR6b.LeYcoy1iB.Ee1zY- has been confirmed
Track | CTDB Status
1 | (8/8) Accurately ripped
2 | (8/8) Accurately ripped
3 | (8/8) Accurately ripped
4 | (8/8) Accurately ripped
5 | (8/8) Accurately ripped
6 | (8/8) Accurately ripped
7 | (8/8) Accurately ripped
8 | (8/8) Accurately ripped
9 | (8/8) Accurately ripped
10 | (8/8) Accurately ripped
11 | (8/8) Accurately ripped
12 | (8/8) Accurately ripped
13 | (8/8) Accurately ripped
14 | (8/8) Accurately ripped
15 | (8/8) Accurately ripped
16 | (8/8) Accurately ripped
17 | (8/8) Accurately ripped
18 | (8/8) Accurately ripped
19 | (8/8) Accurately ripped
20 | (8/8) Accurately ripped
21 | (8/8) Accurately ripped
22 | (8/8) Accurately ripped
23 | (8/8) Accurately ripped
24 | (8/8) Accurately ripped
25 | (8/8) Accurately ripped
26 | (8/8) Accurately ripped
27 | (8/8) Accurately ripped
28 | (8/8) Accurately ripped
29 | (8/8) Accurately ripped
30 | (8/8) Accurately ripped
31 | (8/8) Accurately ripped
32 | (8/8) Accurately ripped
33 | (8/8) Accurately ripped


==== Log checksum 19E455530ACF044A930369917A79ADF85B1EB730F3211392DFE06CACD6B6FF54 ====

Exact Audio Copy V1.3 from 2. September 2016

EAC extraction logfile from 9. December 2019, 14:23

Marcelle Meyer / Les Introuvables, vol. 2 (2)

Used drive : HL-DT-STDVDRAM GH24NSD5 Adapter: 1 ID: 0

Read mode : Secure
Utilize accurate stream : Yes
Defeat audio cache : Yes
Make use of C2 pointers : No

Read offset correction : 6
Overread into Lead-In and Lead-Out : No
Fill up missing offset samples with silence : Yes
Delete leading and trailing silent blocks : No
Null samples used in CRC calculations : Yes
Used interface : Native Win32 interface for Win NT & 2000

Used output format : User Defined Encoder
Selected bitrate : 896 kBit/s
Quality : High
Add ID3 tag : No
Command line compressor : C:\Program Files (x86)\Exact Audio Copy\FLAC\FLAC.EXE
Additional command line options : -6 -V -T "ARTIST=%artist%" -T "TITLE=%title%" -T "ALBUM=%albumtitle%" -T "DATE=%year%" -T "TRACKNUMBER=%tracknr%" -T "GENRE=%genre%" -T "COMMENT=%comment%" -T "BAND=%albuminterpret%" -T "ALBUMARTIST=%albuminterpret%" -T "COMPOSER=%composer%" %haslyrics%–tag-from-file=LYRICS="%lyricsfile%"%haslyrics% -T "DISCNUMBER=%cdnumber%" -T "TOTALDISCS=%totalcds%" -T "TOTALTRACKS=%numtracks%" %hascover%–picture="%coverfile%"%hascover% %source% -o %dest%


TOC of the extracted CD

Track | Start | Length | Start sector | End sector
––––––––––––––––––––––––––––-
1 | 0:00.33 | 2:41.32 | 33 | 12139
2 | 2:41.65 | 1:06.10 | 12140 | 17099
3 | 3:48.00 | 6:46.43 | 17100 | 47592
4 | 10:34.43 | 1:32.02 | 47593 | 54494
5 | 12:06.45 | 1:48.08 | 54495 | 62602
6 | 13:54.53 | 2:21.65 | 62603 | 73242
7 | 16:16.43 | 3:06.15 | 73243 | 87207
8 | 19:22.58 | 2:39.52 | 87208 | 99184
9 | 22:02.35 | 1:37.00 | 99185 | 106459
10 | 23:39.35 | 3:54.13 | 106460 | 124022
11 | 27:33.48 | 2:05.47 | 124023 | 133444
12 | 29:39.20 | 2:49.33 | 133445 | 146152
13 | 32:28.53 | 2:45.22 | 146153 | 158549
14 | 35:14.00 | 1:46.33 | 158550 | 166532
15 | 37:00.33 | 4:19.17 | 166533 | 185974
16 | 41:19.50 | 1:18.68 | 185975 | 191892
17 | 42:38.43 | 3:25.42 | 191893 | 207309
18 | 46:04.10 | 1:34.23 | 207310 | 214382
19 | 47:38.33 | 4:18.22 | 214383 | 233754
20 | 51:56.55 | 2:23.48 | 233755 | 244527
21 | 54:20.28 | 2:16.40 | 244528 | 254767
22 | 56:36.68 | 2:14.52 | 254768 | 264869
23 | 58:51.45 | 1:02.38 | 264870 | 269557
24 | 59:54.08 | 6:08.00 | 269558 | 297157
25 | 66:02.08 | 5:39.02 | 297158 | 322584


Range status and errors

Selected range

Filename H:\Rips\Various - Les Introuvables de Marcelle Meyer Vol. 2 - Meyer\CD2\Marcelle Meyer - Les Introuvables, vol. 2 (2).wav

Peak level 74.7 %
Extraction speed 2.0 X
Range quality 100.0 %
Test CRC 2C8E0C94
Copy CRC 2C8E0C94
Copy OK

No errors occurred


AccurateRip summary

Track 1 accurately ripped (confidence 7) [C090EFD6] (AR v2)
Track 2 accurately ripped (confidence 7) [D2F0E62B] (AR v2)
Track 3 accurately ripped (confidence 7) [C5ECDA57] (AR v2)
Track 4 accurately ripped (confidence 7) [2463269F] (AR v2)
Track 5 accurately ripped (confidence 7) [1CC1BBF6] (AR v2)
Track 6 accurately ripped (confidence 7) [7C92EAD7] (AR v2)
Track 7 accurately ripped (confidence 7) [98158EC1] (AR v2)
Track 8 accurately ripped (confidence 7) [7E710106] (AR v2)
Track 9 accurately ripped (confidence 7) [5B8E0333] (AR v2)
Track 10 accurately ripped (confidence 7) [E55D7A0F] (AR v2)
Track 11 accurately ripped (confidence 7) [4D15B60D] (AR v2)
Track 12 accurately ripped (confidence 7) [8E006A3C] (AR v2)
Track 13 accurately ripped (confidence 7) [F9B3A12A] (AR v2)
Track 14 accurately ripped (confidence 7) [867D13DC] (AR v2)
Track 15 accurately ripped (confidence 7) [63FF46CC] (AR v2)
Track 16 accurately ripped (confidence 7) [82E8895F] (AR v2)
Track 17 accurately ripped (confidence 8) [63B23D6B] (AR v2)
Track 18 accurately ripped (confidence 8) [F9AFF9B2] (AR v2)
Track 19 accurately ripped (confidence 8) [785C33DD] (AR v2)
Track 20 accurately ripped (confidence 8) [CB719085] (AR v2)
Track 21 accurately ripped (confidence 8) [058F5DEF] (AR v2)
Track 22 accurately ripped (confidence 8) [D913A2F0] (AR v2)
Track 23 accurately ripped (confidence 8) [67E3E6B5] (AR v2)
Track 24 accurately ripped (confidence 8) [F67F40CC] (AR v2)
Track 25 accurately ripped (confidence 8) [9B7216C3] (AR v2)

All tracks accurately ripped

End of status report

–– CUETools DB Plugin V2.1.6

[CTDB TOCID: fhiba_rVybFEu7FLJ4FE5sFJHB0-] found
Submit result: fhiba_rVybFEu7FLJ4FE5sFJHB0- has been confirmed
Track | CTDB Status
1 | (7/7) Accurately ripped
2 | (7/7) Accurately ripped
3 | (7/7) Accurately ripped
4 | (7/7) Accurately ripped
5 | (7/7) Accurately ripped
6 | (7/7) Accurately ripped
7 | (7/7) Accurately ripped
8 | (7/7) Accurately ripped
9 | (7/7) Accurately ripped
10 | (7/7) Accurately ripped
11 | (7/7) Accurately ripped
12 | (7/7) Accurately ripped
13 | (7/7) Accurately ripped
14 | (7/7) Accurately ripped
15 | (7/7) Accurately ripped
16 | (7/7) Accurately ripped
17 | (7/7) Accurately ripped
18 | (7/7) Accurately ripped
19 | (7/7) Accurately ripped
20 | (7/7) Accurately ripped
21 | (7/7) Accurately ripped
22 | (7/7) Accurately ripped
23 | (7/7) Accurately ripped
24 | (7/7) Accurately ripped
25 | (7/7) Accurately ripped


==== Log checksum 81E575331E987E574A8CB41D7F1B2E66B6AD8E6BB875CFAB00D6BEE422B4C478 ====

Exact Audio Copy V1.3 from 2. September 2016

EAC extraction logfile from 9. December 2019, 16:17

Marcelle Meyer / Les Introuvables De Marcelle Meyer, Vol. 2 (EMI France)

Used drive : HL-DT-STDVDRAM GH24NSD5 Adapter: 1 ID: 0

Read mode : Secure
Utilize accurate stream : Yes
Defeat audio cache : Yes
Make use of C2 pointers : No

Read offset correction : 6
Overread into Lead-In and Lead-Out : No
Fill up missing offset samples with silence : Yes
Delete leading and trailing silent blocks : No
Null samples used in CRC calculations : Yes
Used interface : Native Win32 interface for Win NT & 2000

Used output format : User Defined Encoder
Selected bitrate : 896 kBit/s
Quality : High
Add ID3 tag : No
Command line compressor : C:\Program Files (x86)\Exact Audio Copy\FLAC\FLAC.EXE
Additional command line options : -6 -V -T "ARTIST=%artist%" -T "TITLE=%title%" -T "ALBUM=%albumtitle%" -T "DATE=%year%" -T "TRACKNUMBER=%tracknr%" -T "GENRE=%genre%" -T "COMMENT=%comment%" -T "BAND=%albuminterpret%" -T "ALBUMARTIST=%albuminterpret%" -T "COMPOSER=%composer%" %haslyrics%–tag-from-file=LYRICS="%lyricsfile%"%haslyrics% -T "DISCNUMBER=%cdnumber%" -T "TOTALDISCS=%totalcds%" -T "TOTALTRACKS=%numtracks%" %hascover%–picture="%coverfile%"%hascover% %source% -o %dest%


TOC of the extracted CD

Track | Start | Length | Start sector | End sector
––––––––––––––––––––––––––––-
1 | 0:00.33 | 3:45.12 | 33 | 16919
2 | 3:45.45 | 3:18.35 | 16920 | 31804
3 | 7:04.05 | 5:30.05 | 31805 | 56559
4 | 12:34.10 | 3:02.60 | 56560 | 70269
5 | 15:36.70 | 2:43.30 | 70270 | 82524
6 | 18:20.25 | 5:32.30 | 82525 | 107454
7 | 23:52.55 | 1:40.45 | 107455 | 114999
8 | 25:33.25 | 2:05.30 | 115000 | 124404
9 | 27:38.55 | 2:56.03 | 124405 | 137607
10 | 30:34.58 | 3:54.07 | 137608 | 155164
11 | 34:28.65 | 4:21.35 | 155165 | 174774
12 | 38:50.25 | 3:15.73 | 174775 | 189472
13 | 42:06.23 | 4:42.17 | 189473 | 210639
14 | 46:48.40 | 1:12.43 | 210640 | 216082
15 | 48:01.08 | 3:06.30 | 216083 | 230062
16 | 51:07.38 | 5:43.07 | 230063 | 255794
17 | 56:50.45 | 3:33.68 | 255795 | 271837
18 | 60:24.38 | 2:49.07 | 271838 | 284519
19 | 63:13.45 | 2:07.20 | 284520 | 294064
20 | 65:20.65 | 3:48.20 | 294065 | 311184


Range status and errors

Selected range

Filename H:\Rips\Various - Les Introuvables de Marcelle Meyer Vol. 2 - Meyer\CD3\Marcelle Meyer - Les Introuvables De Marcelle Meyer, Vol. 2 (CD3).wav

Peak level 66.2 %
Extraction speed 2.0 X
Range quality 100.0 %
Test CRC D5345BEF
Copy CRC D5345BEF
Copy OK

No errors occurred


AccurateRip summary

Track 1 accurately ripped (confidence 7) [99FC3A35] (AR v2)
Track 2 accurately ripped (confidence 7) [65119ABD] (AR v2)
Track 3 accurately ripped (confidence 7) [737669C4] (AR v2)
Track 4 accurately ripped (confidence 7) [4E362D11] (AR v2)
Track 5 accurately ripped (confidence 7) [3D721595] (AR v2)
Track 6 accurately ripped (confidence 7) [7AE977E2] (AR v2)
Track 7 accurately ripped (confidence 7) [05337716] (AR v2)
Track 8 accurately ripped (confidence 7) [85CB69EC] (AR v2)
Track 9 accurately ripped (confidence 7) [D77A6C57] (AR v2)
Track 10 accurately ripped (confidence 7) [EED9F81F] (AR v2)
Track 11 accurately ripped (confidence 7) [9CE3697B] (AR v2)
Track 12 accurately ripped (confidence 7) [8118F0B9] (AR v2)
Track 13 accurately ripped (confidence 7) [DC9BB25B] (AR v2)
Track 14 accurately ripped (confidence 7) [1750C533] (AR v2)
Track 15 accurately ripped (confidence 7) [2926B4BC] (AR v2)
Track 16 accurately ripped (confidence 7) [D72B40CB] (AR v2)
Track 17 accurately ripped (confidence 7) [49CCBB60] (AR v2)
Track 18 accurately ripped (confidence 7) [649F7EE2] (AR v2)
Track 19 accurately ripped (confidence 7) [D2F6B461] (AR v2)
Track 20 accurately ripped (confidence 7) [3657B65E] (AR v2)

All tracks accurately ripped

End of status report

–– CUETools DB Plugin V2.1.6

[CTDB TOCID: tHyYNo_EJ8yJzZCqLQ8s9vUGcHo-] found
Submit result: tHyYNo_EJ8yJzZCqLQ8s9vUGcHo- has been confirmed
Track | CTDB Status
1 | (7/7) Accurately ripped
2 | (7/7) Accurately ripped
3 | (7/7) Accurately ripped
4 | (7/7) Accurately ripped
5 | (7/7) Accurately ripped
6 | (7/7) Accurately ripped
7 | (7/7) Accurately ripped
8 | (7/7) Accurately ripped
9 | (7/7) Accurately ripped
10 | (7/7) Accurately ripped
11 | (7/7) Accurately ripped
12 | (7/7) Accurately ripped
13 | (7/7) Accurately ripped
14 | (7/7) Accurately ripped
15 | (7/7) Accurately ripped
16 | (7/7) Accurately ripped
17 | (7/7) Accurately ripped
18 | (7/7) Accurately ripped
19 | (7/7) Accurately ripped
20 | (7/7) Accurately ripped


==== Log checksum 02A7B4D6D5D059A8A5EFB19DC3F832C16BF66E88CA1210924C39B26D5813D542 ====

Exact Audio Copy V1.3 from 2. September 2016

EAC extraction logfile from 9. December 2019, 17:24

Marcelle Meyer / Les Introvables de Marcelle Meyer, vol. II (Disc 4)

Used drive : HL-DT-STDVDRAM GH24NSD5 Adapter: 1 ID: 0

Read mode : Secure
Utilize accurate stream : Yes
Defeat audio cache : Yes
Make use of C2 pointers : No

Read offset correction : 6
Overread into Lead-In and Lead-Out : No
Fill up missing offset samples with silence : Yes
Delete leading and trailing silent blocks : No
Null samples used in CRC calculations : Yes
Used interface : Native Win32 interface for Win NT & 2000

Used output format : User Defined Encoder
Selected bitrate : 896 kBit/s
Quality : High
Add ID3 tag : No
Command line compressor : C:\Program Files (x86)\Exact Audio Copy\FLAC\FLAC.EXE
Additional command line options : -6 -V -T "ARTIST=%artist%" -T "TITLE=%title%" -T "ALBUM=%albumtitle%" -T "DATE=%year%" -T "TRACKNUMBER=%tracknr%" -T "GENRE=%genre%" -T "COMMENT=%comment%" -T "BAND=%albuminterpret%" -T "ALBUMARTIST=%albuminterpret%" -T "COMPOSER=%composer%" %haslyrics%–tag-from-file=LYRICS="%lyricsfile%"%haslyrics% -T "DISCNUMBER=%cdnumber%" -T "TOTALDISCS=%totalcds%" -T "TOTALTRACKS=%numtracks%" %hascover%–picture="%coverfile%"%hascover% %source% -o %dest%


TOC of the extracted CD

Track | Start | Length | Start sector | End sector
––––––––––––––––––––––––––––-
1 | 0:00.33 | 2:41.25 | 33 | 12132
2 | 2:41.58 | 3:56.22 | 12133 | 29854
3 | 6:38.05 | 3:11.20 | 29855 | 44199
4 | 9:49.25 | 3:01.55 | 44200 | 57829
5 | 12:51.05 | 4:43.03 | 57830 | 79057
6 | 17:34.08 | 2:40.05 | 79058 | 91062
7 | 20:14.13 | 2:05.27 | 91063 | 100464
8 | 22:19.40 | 2:02.25 | 100465 | 109639
9 | 24:21.65 | 2:05.55 | 109640 | 119069
10 | 26:27.45 | 5:04.05 | 119070 | 141874
11 | 31:31.50 | 2:16.53 | 141875 | 152127
12 | 33:48.28 | 2:38.15 | 152128 | 163992
13 | 36:26.43 | 5:11.32 | 163993 | 187349
14 | 41:38.00 | 5:26.28 | 187350 | 211827
15 | 47:04.28 | 5:59.40 | 211828 | 238792
16 | 53:03.68 | 4:02.17 | 238793 | 256959
17 | 57:06.10 | 3:12.05 | 256960 | 271364


Range status and errors

Selected range

Filename H:\Rips\Various - Les Introuvables de Marcelle Meyer Vol. 2 - Meyer\CD4\Marcelle Meyer - Les Introvables de Marcelle Meyer, vol. II (Disc 4).wav

Peak level 60.9 %
Extraction speed 1.8 X
Range quality 100.0 %
Test CRC 26A80DD0
Copy CRC 26A80DD0
Copy OK

No errors occurred


AccurateRip summary

Track 1 accurately ripped (confidence 7) [1FA49118] (AR v2)
Track 2 accurately ripped (confidence 7) [054F73E4] (AR v2)
Track 3 accurately ripped (confidence 7) [D5515904] (AR v2)
Track 4 accurately ripped (confidence 7) [BF6BBED6] (AR v2)
Track 5 accurately ripped (confidence 7) [4D69910D] (AR v2)
Track 6 accurately ripped (confidence 7) [7E368D38] (AR v2)
Track 7 accurately ripped (confidence 7) [205FC26B] (AR v2)
Track 8 accurately ripped (confidence 7) [81DB5295] (AR v2)
Track 9 accurately ripped (confidence 7) [2AEC84E6] (AR v2)
Track 10 accurately ripped (confidence 7) [D40056D6] (AR v2)
Track 11 accurately ripped (confidence 7) [67674B99] (AR v2)
Track 12 accurately ripped (confidence 7) [72215E6F] (AR v2)
Track 13 accurately ripped (confidence 7) [CD44A038] (AR v2)
Track 14 accurately ripped (confidence 7) [AE76886C] (AR v2)
Track 15 accurately ripped (confidence 7) [DA209C81] (AR v2)
Track 16 accurately ripped (confidence 7) [80ED07E2] (AR v2)
Track 17 accurately ripped (confidence 7) [36E2ED2C] (AR v2)

All tracks accurately ripped

End of status report

–– CUETools DB Plugin V2.1.6

[CTDB TOCID: 8dm9.ua1rBW0aFw9BqQNxVadGNY-] found
Submit result: 8dm9.ua1rBW0aFw9BqQNxVadGNY- has been confirmed
Track | CTDB Status
1 | (8/8) Accurately ripped
2 | (8/8) Accurately ripped
3 | (8/8) Accurately ripped
4 | (8/8) Accurately ripped
5 | (8/8) Accurately ripped
6 | (8/8) Accurately ripped
7 | (8/8) Accurately ripped
8 | (8/8) Accurately ripped
9 | (8/8) Accurately ripped
10 | (8/8) Accurately ripped
11 | (8/8) Accurately ripped
12 | (8/8) Accurately ripped
13 | (8/8) Accurately ripped
14 | (8/8) Accurately ripped
15 | (8/8) Accurately ripped
16 | (8/8) Accurately ripped
17 | (8/8) Accurately ripped


==== Log checksum 7A4504AA506E2794D4FC60A7CBE2FF86BFF972825C1A4E7CC063FD576193747D ====

Thanks to the Original ripper (unknown)!

Welcome to my blog!

Download: