Subcategories

Marcus Creed, Akademie fur Alte Musik Berlin - Handel: Ode for the Birthday of Queen Anne, Dixit Dominus (2009)

Posted By: ArlegZ
Marcus Creed, Akademie fur Alte Musik Berlin - Handel: Ode for the Birthday of Queen Anne, Dixit Dominus (2009)

Marcus Creed, Akademie für Alte Musik Berlin - Handel: Ode for the Birthday of Queen Anne, Dixit Dominus (2009)
EAC | FLAC | Image (Cue & Log) ~ 300 Mb | Total time: 56:24 | Scans included
Classical | Label: Harmonia Mundi | # HMC 902041 | Recorded: 2008

Marcus Creed amply proves in this recording of the Ode for the Birthday of Queen Anne and the Dixit Dominus that he has what it takes to conduct George Frederick Handel. He's got the big beat down, plus the muscular rhythms, vigorous tempos, and vivid textures, as well as the tight ensembles and the unstoppable drive so essential in making Handel come alive. And that's just in the fast choral movements. In the solos and duets, Creed creates poised, alert, and wholly sympathetic accompaniments that help shape the singers' performances as part of the total work. And what singers! Both sopranos are superlative, especially Sophie Kussmann, and countertenor Andreas Scholl is, as always, strong, yet supple and sensitive. With the expert period instrument skills of the Akademie für Alte Musik, Berlin, and the agile but robust singing of the Vocalconsort Berlin, Creed has delivered one of the great Handel discs.
(James Leonard)

Performer:
Hélène Guilmette, Sophie Klussmann, sopranos
Andreas Scholl, countertenor
Malcolm E.Bennett, tenor
Andreas Wolf, bass
Vocalconsort Berlin
Akademie für Alte Musik Berlin
Direction - Marcus Creed

Track List:
Ode for the Birthday of Queen Anne, HMV 74
01. I. Solo "Eternal Source of Light Divine"
02. II. Solo e Coro "The Day That Gave Great Anna Birth"
03. III. Solo "Let All the Winged Race With Joy"
04. IV. Soli e Coro "Let Flocks and Herds Their Fear Forget"
05. V. Duetto e Coro "Let Rolling Streams Their Gladness Show"
06. VI. Duetto "Kind Health Descends On Downy Wings"
07. VII. Duetto e Coro "The Day That Gave Great Anna Birth"
08. VIII. Solo e Coro "Let Envy Then Conceal Her Head"
09. IX. Solo e Coro "United Nations Shall Combine"
Dixit Dominus, HMV 232
10. I. Coro "Dixit Dominus"
11. II. Aria "Virgam Virtutis Tuae"
12. III. Aria "Tecum Principium in Die Virtutis"
13. IV. Coro "Juravit Dominus"
14. V. Coro "Tu Es Sacerdos in Aeternum
15. VI. Soli e Coro "Dominus a Dextris Tuis"
16. VII. Soli e Coro "De Torrente in Via Bibet"
17. VIII. Coro "Gloria Patri, Et Filio"


Exact Audio Copy V1.3 from 2. September 2016

EAC extraction logfile from 10. November 2017, 19:14

Marcus Creed, Akademie für Alte Musik Berlin, Vocalconsort Berlin / Handel - Ode for the Birthday of Queen Anne

Used drive : PIONEER DVD-RW DVR-218L Adapter: 1 ID: 0

Read mode : Secure
Utilize accurate stream : Yes
Defeat audio cache : Yes
Make use of C2 pointers : No

Read offset correction : 6
Overread into Lead-In and Lead-Out : No
Fill up missing offset samples with silence : Yes
Delete leading and trailing silent blocks : No
Null samples used in CRC calculations : Yes
Used interface : Native Win32 interface for Win NT & 2000

Used output format : User Defined Encoder
Selected bitrate : 128 kBit/s
Quality : High
Add ID3 tag : No
Command line compressor : C:\Program Files\Exact Audio Copy\Flac\flac.exe
Additional command line options : -V -8 -T "Date=%year%" -T "Genre=%genre%" %source%


TOC of the extracted CD

Track | Start | Length | Start sector | End sector
––––––––––––––––––––––––––––-
1 | 0:00.00 | 3:01.23 | 0 | 13597
2 | 3:01.23 | 2:37.10 | 13598 | 25382
3 | 5:38.33 | 2:36.65 | 25383 | 37147
4 | 8:15.23 | 2:29.29 | 37148 | 48351
5 | 10:44.52 | 2:47.03 | 48352 | 60879
6 | 13:31.55 | 4:58.58 | 60880 | 83287
7 | 18:30.38 | 1:45.19 | 83288 | 91181
8 | 20:15.57 | 1:57.15 | 91182 | 99971
9 | 22:12.72 | 3:07.71 | 99972 | 114067
10 | 25:20.68 | 5:11.66 | 114068 | 137458
11 | 30:32.59 | 3:10.10 | 137459 | 151718
12 | 33:42.69 | 3:05.34 | 151719 | 165627
13 | 36:48.28 | 2:17.55 | 165628 | 175957
14 | 39:06.08 | 1:35.47 | 175958 | 183129
15 | 40:41.55 | 6:18.20 | 183130 | 211499
16 | 47:00.00 | 3:32.21 | 211500 | 227420
17 | 50:32.21 | 5:50.32 | 227421 | 253702


Range status and errors

Selected range

Filename C:\Program Files\Exact Audio Copy\Flac\Handel - Ode for the Birthday of Queen Anne.wav

Peak level 99.5 %
Extraction speed 1.8 X
Range quality 100.0 %
Test CRC DB96024D
Copy CRC DB96024D
Copy OK

No errors occurred


AccurateRip summary

Track 1 accurately ripped (confidence 16) [FA75BFBC] (AR v2)
Track 2 accurately ripped (confidence 16) [E6BA6B24] (AR v2)
Track 3 accurately ripped (confidence 16) [00F425AC] (AR v2)
Track 4 accurately ripped (confidence 16) [C3CCDB04] (AR v2)
Track 5 accurately ripped (confidence 16) [5BBC9588] (AR v2)
Track 6 accurately ripped (confidence 16) [DC75CDE4] (AR v2)
Track 7 accurately ripped (confidence 15) [20262581] (AR v2)
Track 8 accurately ripped (confidence 15) [272D4C14] (AR v2)
Track 9 accurately ripped (confidence 15) [1F45F902] (AR v2)
Track 10 accurately ripped (confidence 16) [F6BE81EE] (AR v2)
Track 11 accurately ripped (confidence 16) [AFF033A6] (AR v2)
Track 12 accurately ripped (confidence 16) [122072E3] (AR v2)
Track 13 accurately ripped (confidence 16) [FC346006] (AR v2)
Track 14 accurately ripped (confidence 16) [C8741312] (AR v2)
Track 15 accurately ripped (confidence 16) [1B2EDACC] (AR v2)
Track 16 accurately ripped (confidence 16) [5A4E4A8A] (AR v2)
Track 17 accurately ripped (confidence 16) [87700977] (AR v2)

All tracks accurately ripped

End of status report

==== Log checksum A51F63C768A06F1F80A97D9FC857985495E3472FA15534E72301753391B9B2CE ====

Marcus Creed, Akademie fur Alte Musik Berlin - Handel: Ode for the Birthday of Queen Anne, Dixit Dominus (2009)