Subcategories

Marcus Miller feat. Kenny Garrett - Live (1988) {Unofficial Release}

Posted By: tiburon
Marcus Miller feat. Kenny Garrett - Live (1988) {Unofficial Release}

Marcus Miller feat. Kenny Garrett - Live (1988) {Unofficial Release}
EAC 0.95b3 | FLAC tracks level 8 | Cue+Log+M3U | Full Scans 300dpi | 283MB + 5% Recovery
MP3 CBR 320 Kbps | 123MB + 5% Recovery
Genre: Jazz-Funk

If there's such a thing as post-modernist Jazz-Funk, it surely sounds like this.
Track List
01. Panther 8:14
02. Scoop 8:52
03. Steveland 9:25
04. Rampage 7:47
05. Tutu 8:19
06. Ju Ju 8:05

musicians
Marcus Miller - bass
Kenny Garrett - saxophone
Michael Stewart - trumpet
Bernhard Wright - keyboards
Morris Pleasure - keyboards
Poogie Bell - drums

Recorded Live in USA, 1988


EAC extraction logfile from 29. January 2010, 12:17 for CD
Marcus Miller / Live

Used drive : LITE-ON CD-RW SOHR-5238S Adapter: 1 ID: 0
Read mode : Secure with NO C2, accurate stream, disable cache
Read offset correction : 6
Overread into Lead-In and Lead-Out : Yes

Used output format : C:\Program Files\MediaCoder\codecs\flac.exe (User Defined Encoder)
320 kBit/s
Additional command line options : ?8 ?V ?T "ARTIST=%a" ?T "TITLE=%t" ?T "ALBUM=%g" ?T "DATE=%y" ?T "TRACKNUMBER=%n" ?T "GENRE=%m" ?T "COMMENT=EAC FLAC ?8" %s

Other options :
Fill up missing offset samples with silence : Yes
Delete leading and trailing silent blocks : No
Native Win32 interface for Win NT & 2000


Track 1
Filename K:\На перезаливку-ок\Marcus Miller Live…featuring Kenny Garrett-1988[FLAC]\01 - Panther.wav

Pre-gap length 0:00:02.00

Peak level 75.4 %
Track quality 100.0 %
Test CRC F6707AEC
Copy CRC F6707AEC
Copy OK

Track 2
Filename K:\На перезаливку-ок\Marcus Miller Live…featuring Kenny Garrett-1988[FLAC]\02 - Scoop.wav

Peak level 74.9 %
Track quality 100.0 %
Test CRC 560A948A
Copy CRC 560A948A
Copy OK

Track 3
Filename K:\На перезаливку-ок\Marcus Miller Live…featuring Kenny Garrett-1988[FLAC]\03 - Steveland.wav

Peak level 69.5 %
Track quality 100.0 %
Test CRC 87AF8151
Copy CRC 87AF8151
Copy OK

Track 4
Filename K:\На перезаливку-ок\Marcus Miller Live…featuring Kenny Garrett-1988[FLAC]\04 - Rampage.wav

Peak level 78.6 %
Track quality 100.0 %
Test CRC 84FC2EC4
Copy CRC 84FC2EC4
Copy OK

Track 5
Filename K:\На перезаливку-ок\Marcus Miller Live…featuring Kenny Garrett-1988[FLAC]\05 - Tutu.wav

Peak level 87.1 %
Track quality 100.0 %
Test CRC 66EC44BF
Copy CRC 66EC44BF
Copy OK

Track 6
Filename K:\На перезаливку-ок\Marcus Miller Live…featuring Kenny Garrett-1988[FLAC]\06 - Ju Ju.wav

Peak level 81.0 %
Track quality 99.8 %
Test CRC 876EDF7C
Copy CRC 876EDF7C
Copy OK

No errors occured


End of status report


AUDIOCHECKER v2.0 beta (build 457) - by Dester - opdester@freemail.hu
~~~~~~~~~~~~~~~~~~~~~~~~~~~~~~~~~~
-=== DO NOT EDIT THIS FILE! ===-

Path: …\Marcus Miller feat Kenny Garrett - Live (1988) [FLAC]

1 -=- 01 - Panther.flac -=- CDDA (100%)
2 -=- 02 - Scoop.flac -=- CDDA (100%)
3 -=- 03 - Steveland.flac -=- CDDA (100%)
4 -=- 04 - Rampage.flac -=- CDDA (100%)
5 -=- 05 - Tutu.flac -=- CDDA (100%)
6 -=- 06 - Ju Ju.flac -=- CDDA (100%)

Summary 100,00% CDDA

102595876


foobar2000 1.3.13 / Dynamic Range Meter 1.1.1
log date: 2019-11-23 23:57:36

––––––––––––––––––––––––––––––––––––––––
Analyzed: Marcus Miller feat Kenny Garrett / Live
––––––––––––––––––––––––––––––––––––––––

DR Peak RMS Duration Track
––––––––––––––––––––––––––––––––––––––––
DR13 -2.44 dB -18.86 dB 8:14 01-Panther
DR12 -2.50 dB -17.19 dB 8:53 02-Scoop
DR11 -3.16 dB -17.87 dB 9:25 03-Steveland
DR13 -2.08 dB -19.36 dB 7:48 04-Rampage
DR12 -1.20 dB -16.89 dB 8:19 05-Tutu
DR12 -1.83 dB -16.67 dB 8:06 06-Ju Ju
––––––––––––––––––––––––––––––––––––––––

Number of tracks: 6
Official DR value: DR12

Samplerate: 44100 Hz
Channels: 2
Bits per sample: 16
Bitrate: 826 kbps
Codec: FLAC
================================================================================

Marcus Miller feat. Kenny Garrett - Live (1988) {Unofficial Release}
Marcus Miller feat. Kenny Garrett - Live (1988) {Unofficial Release}


Thanks to the original ripper