Subcategories

Marcus Miller - Original Album Classic (2009) [5CDs BoxSet] {Dreyfus}

Posted By: tiburon
Marcus Miller - Original Album Classic (2009) [5CDs BoxSet] {Dreyfus}

Marcus Miller - Original Album Classic (2009) [5CDs BoxSet] {Dreyfus}
EAC 1.0b1 | FLAC Image level 6 | Cue+Log | Full Scans 300dpi | 2GB + 5% Recovery
MP3 CBR 320 Kbps | 794MB + 5% Recovery
Genre: Jazz-Funk, Fusion

Marcus Miller (born William Henry Marcus Miller, Jr.; June 14, 1959) is an American jazz composer, producer and multi-instrumentalist, best known as a bass guitarist. Throughout his career, Miller worked with trumpeter Miles Davis, pianist Herbie Hancock, singer Luther Vandross, and saxophonist David Sanborn, as well as maintaining a successful solo career. Miller is classically trained as a clarinetist and also plays keyboards, saxophone and guitar.

CD1 - Marcus Miller – The Sun Don’t Lie (1993)

Marcus Miller - Original Album Classic (2009) [5CDs BoxSet] {Dreyfus}


Track List
01. Panther 6:02
02. Steveland 7:22
03. Rampage 5:48
04. The Sun Don't Lie 6:29
05. Scoop 5:58
06. Mr. Pastorius 1:25
07. Funny (All She Needs Is Love) 5:25
08. Moons 4:52
09. Teen Town 4:55
10. Juju 6:02
11. The King Is Gone (For Miles) 6:05

musicians
Marcus Miller - bass guitar, bass clarinet, rhythm guitar, keyboards, programming
Miles Davis - trumpet
Sal Marquez - trumpet
Michael "Patches" Stewart - trumpet
Kenny Garrett - alto saxophone
David Sanborn - alto saxophone
Everette Harp - alto & soprano saxophones
Wayne Shorter - soprano & tenor saxophones
Kirk Whalum - tenor saxophone
Joe Sample - piano
Christian "Wicked" Wicht - keyboards
Philippe Saisse - keyboards, programming
Dean Brown - guitar
Hiram Bullock - guitar
Jonathan Butler - guitar
Paul Jackson, Jr. - guitar
Vernon Reid - guitar
Poogie Bell - drums
Will Calhoun - drums
Michael White - drums
Tony Williams - drums
Lenny White - drums, percussion
Omar Hakim - drums, cymbals
Steve Ferrone - drums, hi hat
Andy Narell - steel drums
Paulinho Da Costa - percussion
Steve Thornton - percussion
Don Alias - percussion, conga
Maurice White - vocal samples

Produced by Marcus Miller


Exact Audio Copy V1.0 beta 1 from 15. November 2010

EAC extraction logfile from 19. January 2011, 16:17

Marcus Miller / The Sun Don't Lie

Used drive : MATSHITADVD-RAM UJ870BJ Adapter: 0 ID: 1

Read mode : Secure
Utilize accurate stream : Yes
Defeat audio cache : Yes
Make use of C2 pointers : No

Read offset correction : 102
Overread into Lead-In and Lead-Out : No
Fill up missing offset samples with silence : Yes
Delete leading and trailing silent blocks : No
Null samples used in CRC calculations : No
Used interface : Native Win32 interface for Win NT & 2000

Used output format : User Defined Encoder
Selected bitrate : 1024 kBit/s
Quality : High
Add ID3 tag : Yes
Command line compressor : C:\Program Files\Exact Audio Copy\FLAC\FLAC.EXE
Additional command line options : -6 -V -T "ARTIST=%a" -T "TITLE=%t" -T "ALBUM=%g" -T "DATE=%y" -T "TRACKNUMBER=%n" -T "GENRE=%m" -T "COMMENT=%e" %j–picture="%i"%j %s -o %d


TOC of the extracted CD

Track | Start | Length | Start sector | End sector
––––––––––––––––––––––––––––-
1 | 0:00.00 | 6:03.30 | 0 | 27254
2 | 6:03.30 | 7:21.67 | 27255 | 60396
3 | 13:25.22 | 5:48.43 | 60397 | 86539
4 | 19:13.65 | 6:29.40 | 86540 | 115754
5 | 25:43.30 | 5:59.17 | 115755 | 142696
6 | 31:42.47 | 1:25.40 | 142697 | 149111
7 | 33:08.12 | 5:26.08 | 149112 | 173569
8 | 38:34.20 | 4:52.42 | 173570 | 195511
9 | 43:26.62 | 4:55.50 | 195512 | 217686
10 | 48:22.37 | 6:02.73 | 217687 | 244909
11 | 54:25.35 | 6:05.25 | 244910 | 272309


Range status and errors

Selected range

Filename C:\Loss\Marcus Miller - Original Album Classic (2009) box 5 cd (flac)\Cd 1\Marcus Miller - The Sun Don't Lie.wav

Peak level 99.4 %
Extraction speed 0.1 X
Range quality 99.9 %
Copy CRC F8B88711
Copy OK

No errors occurred


AccurateRip summary

Track 1 cannot be verified as accurate (confidence 77) [05945E45], AccurateRip returned [1D167448]
Track 2 cannot be verified as accurate (confidence 76) [62F03250], AccurateRip returned [552B69AF]
Track 3 cannot be verified as accurate (confidence 77) [7EA38798], AccurateRip returned [E3CF2DC6]
Track 4 cannot be verified as accurate (confidence 77) [FC957B74], AccurateRip returned [E1752E9D]
Track 5 cannot be verified as accurate (confidence 75) [D58D32F3], AccurateRip returned [FFBB2422]
Track 6 cannot be verified as accurate (confidence 77) [DE62D121], AccurateRip returned [7ADEF4C0]
Track 7 cannot be verified as accurate (confidence 76) [33075A31], AccurateRip returned [244021E6]
Track 8 cannot be verified as accurate (confidence 75) [BB6EED0D], AccurateRip returned [A4528C01]
Track 9 cannot be verified as accurate (confidence 75) [5CDA5818], AccurateRip returned [EEA9FCA7]
Track 10 cannot be verified as accurate (confidence 76) [DF001CEA], AccurateRip returned [D0355418]
Track 11 cannot be verified as accurate (confidence 72) [711A74F9], AccurateRip returned [CC6F9B95]

No tracks could be verified as accurate
You may have a different pressing from the one(s) in the database

End of status report

==== Log checksum 0CA5673DDE2099CDBE0EF94900712662073B1D1E7E1ABF5803BDA650C88E89FE ====


––––––––––––––––––––––––––––––––––––––––
Analyzed: Marcus Miller / The Sun Don't Lie
––––––––––––––––––––––––––––––––––––––––

DR Peak RMS Duration Track
––––––––––––––––––––––––––––––––––––––––
DR12 -0.32 dB -14.25 dB 6:03 01-Panther
DR13 -0.32 dB -15.26 dB 7:22 02-Steveland
DR13 -0.29 dB -15.04 dB 5:49 03-Rampage
DR12 -0.32 dB -14.16 dB 6:30 04-The Sun Don't Lie
DR10 -1.00 dB -12.90 dB 5:59 05-Scoop
DR14 -1.00 dB -18.27 dB 1:26 06-Mr. Pastorius
DR10 -0.05 dB -12.33 dB 5:26 07-Funny (All She Needs Is Love)
DR12 -0.32 dB -14.47 dB 4:53 08-Moons
DR12 -0.32 dB -14.50 dB 4:56 09-Teen Town
DR9 -0.32 dB -11.60 dB 6:03 10-Juju
DR10 -0.32 dB -14.08 dB 6:05 11-The King Is Gone (For Miles)
––––––––––––––––––––––––––––––––––––––––

Number of tracks: 11
Official DR value: DR12

Samplerate: 44100 Hz
Channels: 2
Bits per sample: 16
Bitrate: 871 kbps
Codec: FLAC
================================================================================

Marcus Miller - Original Album Classic (2009) [5CDs BoxSet] {Dreyfus}
Marcus Miller - Original Album Classic (2009) [5CDs BoxSet] {Dreyfus}


CD2 • Marcus Miller – Free (2007)

Marcus Miller - Original Album Classic (2009) [5CDs BoxSet] {Dreyfus}


Track List
01. Blast 5:43
02. Funk Joint 5:42
03. Free 5:39
04. Strum 5:40
05. Milky Way 5:38
06. Pluck (Interlude) 3:55
07. When I Fall In Love 5:24
08. Jean Pierre 7:26
09. Higher Ground 6:30
10. What Is Hip? 5:58

musicians
Marcus Miller - bass, guitar, keyboards, organ, sitar, bass clarinet, percussion, beat programming
Poogie Bell - drums
Julian Miller - percussion programming
Andrea Braido - guitar
David Sanborn - alto saxophone
Bernard Wright - synthesizers, organ
Paul Jackson, Jr. - acoustic guitar
Tom Scott - tenor sax
Lalah Hathaway - vocals
Bobby Sparks - synths, bass synths, Moog synths, clavinet, organ
Gregoire Maret - harmonica
Michael "Patches" Stewart - trumpet, flugelhorn
Keith Anderson - tenor saxophone
Chester Thompson - organ
Jason Thomas - drums
Keb' Mo' - lead and background vocals, guitar
Teddy Campbell - drums
Corinne Bailey Rae - lead and background vocals
Tavia Ivey - background vocals
Kenya Ivey - background vocals
Ulisa Ivey - background vocals
Gussie Miller - background vocals

Produced by Marcus Miller


Exact Audio Copy V1.0 beta 1 from 15. November 2010

EAC extraction logfile from 19. January 2011, 19:03

Marcus Miller / Free

Used drive : MATSHITADVD-RAM UJ870BJ Adapter: 0 ID: 1

Read mode : Secure
Utilize accurate stream : Yes
Defeat audio cache : Yes
Make use of C2 pointers : No

Read offset correction : 102
Overread into Lead-In and Lead-Out : No
Fill up missing offset samples with silence : Yes
Delete leading and trailing silent blocks : No
Null samples used in CRC calculations : No
Used interface : Native Win32 interface for Win NT & 2000

Used output format : User Defined Encoder
Selected bitrate : 1024 kBit/s
Quality : High
Add ID3 tag : Yes
Command line compressor : C:\Program Files\Exact Audio Copy\FLAC\FLAC.EXE
Additional command line options : -6 -V -T "ARTIST=%a" -T "TITLE=%t" -T "ALBUM=%g" -T "DATE=%y" -T "TRACKNUMBER=%n" -T "GENRE=%m" -T "COMMENT=%e" %j–picture="%i"%j %s -o %d


TOC of the extracted CD

Track | Start | Length | Start sector | End sector
––––––––––––––––––––––––––––-
1 | 0:00.00 | 5:43.25 | 0 | 25749
2 | 5:43.25 | 5:44.36 | 25750 | 51585
3 | 11:27.61 | 5:38.51 | 51586 | 76986
4 | 17:06.37 | 5:41.34 | 76987 | 102595
5 | 22:47.71 | 5:37.72 | 102596 | 127942
6 | 28:25.68 | 3:55.01 | 127943 | 145568
7 | 32:20.69 | 5:23.38 | 145569 | 169831
8 | 37:44.32 | 7:25.51 | 169832 | 203257
9 | 45:10.08 | 6:30.05 | 203258 | 232512
10 | 51:40.13 | 6:00.07 | 232513 | 259519


Range status and errors

Selected range

Filename C:\Loss\Marcus Miller - Original Album Classic (2009) box 5 cd (flac)\Cd 2\Marcus Miller - Free.wav

Peak level 100.0 %
Extraction speed 0.1 X
Range quality 100.0 %
Copy CRC 40CE85D6
Copy OK

No errors occurred


AccurateRip summary

Track 1 accurately ripped (confidence 8) [70E9F16A]
Track 2 accurately ripped (confidence 8) [4221433C]
Track 3 accurately ripped (confidence 8) [954A14B7]
Track 4 accurately ripped (confidence 8) [4082934F]
Track 5 accurately ripped (confidence 8) [959608CC]
Track 6 accurately ripped (confidence 8) [706BB86C]
Track 7 accurately ripped (confidence 8) [BBD2D5D9]
Track 8 accurately ripped (confidence 7) [9DD092EB]
Track 9 accurately ripped (confidence 8) [1B85271C]
Track 10 accurately ripped (confidence 7) [4E3206F1]

All tracks accurately ripped

End of status report

==== Log checksum 082AADED7F1F06E6E2A01AF8C46FE30825EED861F3073DF9289062ACDD1F93F4 ====


––––––––––––––––––––––––––––––––––––––––
Analyzed: Marcus Miller / Free
––––––––––––––––––––––––––––––––––––––––

DR Peak RMS Duration Track
––––––––––––––––––––––––––––––––––––––––
DR8 -0.02 dB -9.42 dB 5:43 01-Blast
DR7 0.00 dB -9.13 dB 5:44 02-Funk Joint
DR8 0.00 dB -9.97 dB 5:39 03-Free
DR7 -0.02 dB -8.67 dB 5:41 04-Strum
DR6 0.00 dB -7.75 dB 5:38 05-Milky Way
DR8 0.00 dB -9.30 dB 3:55 06-Pluk (interlude)
DR7 -0.80 dB -10.05 dB 5:24 07-When I Fall In Love
DR9 0.00 dB -11.04 dB 7:26 08-Jean Pierre
DR7 0.00 dB -8.48 dB 6:30 09-Higher Ground
DR8 0.00 dB -9.64 dB 6:00 10-What Is Hip?
––––––––––––––––––––––––––––––––––––––––

Number of tracks: 10
Official DR value: DR8

Samplerate: 44100 Hz
Channels: 2
Bits per sample: 16
Bitrate: 898 kbps
Codec: FLAC
================================================================================

Marcus Miller - Original Album Classic (2009) [5CDs BoxSet] {Dreyfus}
Marcus Miller - Original Album Classic (2009) [5CDs BoxSet] {Dreyfus}


CD3 • Marcus Miller – M2 (2001)

Marcus Miller - Original Album Classic (2009) [5CDs BoxSet] {Dreyfus}


Track List
01. Power (4:37)
02. Lonnie's Lament (5:39)
03. Boomerang (5:50)
04. Nikki's Groove (3:28)
05. Goodbye Pork Pie Hat (3:35)
06. Ozell (Interlude 1) (0:49)
07. Burning Down The House (6:54)
08. It's Me Again (6:05)
09. Cousin John (4:43)
10. Ozell (Interlude 2) (0:39)
11. 3 Deuces (5:51)
12. Red Baron (6:38)
13. Ozell (Interlude 3) (1:02)
14. Your Amazing Grace (7:44)
15. Ozell (interlude 4) (1:54)

musicians
Marcus Miller: bass, bass guitar, synthesizer, Wurlitzer, vocals, etc.
Vinnie Colaiuta: drums
Maceo Parker: alto saxophone
Herbie Hancock: piano
Poogie Bell: drums
Chaka Khan: vocal

Produced by Marcus Miller


Exact Audio Copy V1.0 beta 1 from 15. November 2010

EAC extraction logfile from 19. January 2011, 20:31

Marcus Miller / M Squared

Used drive : MATSHITADVD-RAM UJ870BJ Adapter: 0 ID: 1

Read mode : Secure
Utilize accurate stream : Yes
Defeat audio cache : Yes
Make use of C2 pointers : No

Read offset correction : 102
Overread into Lead-In and Lead-Out : No
Fill up missing offset samples with silence : Yes
Delete leading and trailing silent blocks : No
Null samples used in CRC calculations : No
Used interface : Native Win32 interface for Win NT & 2000

Used output format : User Defined Encoder
Selected bitrate : 1024 kBit/s
Quality : High
Add ID3 tag : Yes
Command line compressor : C:\Program Files\Exact Audio Copy\FLAC\FLAC.EXE
Additional command line options : -6 -V -T "ARTIST=%a" -T "TITLE=%t" -T "ALBUM=%g" -T "DATE=%y" -T "TRACKNUMBER=%n" -T "GENRE=%m" -T "COMMENT=%e" %j–picture="%i"%j %s -o %d


TOC of the extracted CD

Track | Start | Length | Start sector | End sector
––––––––––––––––––––––––––––-
1 | 0:00.00 | 4:37.15 | 0 | 20789
2 | 4:37.15 | 5:39.15 | 20790 | 46229
3 | 10:16.30 | 5:49.40 | 46230 | 72444
4 | 16:05.70 | 3:28.27 | 72445 | 88071
5 | 19:34.22 | 3:34.50 | 88072 | 104171
6 | 23:08.72 | 0:48.65 | 104172 | 107836
7 | 23:57.62 | 6:54.33 | 107837 | 138919
8 | 30:52.20 | 6:05.17 | 138920 | 166311
9 | 36:57.37 | 4:42.45 | 166312 | 187506
10 | 41:40.07 | 0:39.03 | 187507 | 190434
11 | 42:19.10 | 5:51.00 | 190435 | 216759
12 | 48:10.10 | 6:38.10 | 216760 | 246619
13 | 54:48.20 | 1:01.42 | 246620 | 251236
14 | 55:49.62 | 7:43.58 | 251237 | 286019
15 | 63:33.45 | 1:54.07 | 286020 | 294576


Range status and errors

Selected range

Filename C:\Loss\Marcus Miller - Original Album Classic (2009) box 5 cd (flac)\Cd 3\Marcus Miller - M Squared.wav

Peak level 99.9 %
Extraction speed 0.0 X
Range quality 100.0 %
Copy CRC 72DF0C1E
Copy OK

No errors occurred


AccurateRip summary

Track 1 cannot be verified as accurate (confidence 93) [B9F585AD], AccurateRip returned [488A946D]
Track 2 cannot be verified as accurate (confidence 93) [F6B9C1C1], AccurateRip returned [03356D51]
Track 3 cannot be verified as accurate (confidence 93) [638EF82E], AccurateRip returned [552E936E]
Track 4 cannot be verified as accurate (confidence 92) [E3ECA5A7], AccurateRip returned [E30D5E97]
Track 5 cannot be verified as accurate (confidence 93) [F7850DF3], AccurateRip returned [A45B9236]
Track 6 cannot be verified as accurate (confidence 94) [120EC224], AccurateRip returned [8A10CB81]
Track 7 cannot be verified as accurate (confidence 93) [EFFE5D06], AccurateRip returned [F8EF4452]
Track 8 cannot be verified as accurate (confidence 94) [4954E649], AccurateRip returned [49D97119]
Track 9 cannot be verified as accurate (confidence 94) [0DEBC6B4], AccurateRip returned [3DF6D794]
Track 10 cannot be verified as accurate (confidence 94) [F78EE962], AccurateRip returned [7F26840C]
Track 11 cannot be verified as accurate (confidence 94) [B3C92120], AccurateRip returned [188E9126]
Track 12 cannot be verified as accurate (confidence 94) [6A8016D6], AccurateRip returned [7266AB02]
Track 13 cannot be verified as accurate (confidence 93) [0ACED8E6], AccurateRip returned [6F8CB4AA]
Track 14 cannot be verified as accurate (confidence 90) [5CECB428], AccurateRip returned [0263D5F8]
Track 15 cannot be verified as accurate (confidence 88) [78C6ECA1], AccurateRip returned [498C5D31]

No tracks could be verified as accurate
You may have a different pressing from the one(s) in the database

End of status report

==== Log checksum 06C8A758780DF46160D992FC2108A24E4313A2631D170C9D59D8B89C3934CAE8 ====


––––––––––––––––––––––––––––––––––––––––
Analyzed: Marcus Miller / M Squared
––––––––––––––––––––––––––––––––––––––––

DR Peak RMS Duration Track
––––––––––––––––––––––––––––––––––––––––
DR9 -0.10 dB -10.48 dB 4:37 01-Power
DR8 -0.70 dB -9.94 dB 5:39 02-Lonnie's Lament
DR7 -0.10 dB -8.44 dB 5:50 03-Boomerang
DR8 -0.10 dB -9.30 dB 3:28 04-Nikki's Groove
DR8 -0.10 dB -9.99 dB 3:35 05-Goodbye Pork Pie Hat
DR10 -0.10 dB -13.24 dB 0:49 06-Ozell (Interlude 1)
DR9 -0.10 dB -10.44 dB 6:54 07-Burning Down The House
DR9 0.00 dB -10.92 dB 6:05 08-It's Me Again
DR8 -0.10 dB -9.95 dB 4:43 09-Cousin John
DR10 -0.10 dB -12.03 dB 0:39 10-Ozell (Interlude 2)
DR11 -0.10 dB -12.67 dB 5:51 11-3 Deuces
DR9 -0.10 dB -10.77 dB 6:38 12-Red Baron
DR10 -0.10 dB -11.83 dB 1:02 13-Ozell (Interlude 3)
DR8 -0.09 dB -10.48 dB 7:44 14-Your Amazing Grace
DR8 -0.10 dB -9.10 dB 1:54 15-Ozell (interlude 4)
––––––––––––––––––––––––––––––––––––––––

Number of tracks: 15
Official DR value: DR9

Samplerate: 44100 Hz
Channels: 2
Bits per sample: 16
Bitrate: 862 kbps
Codec: FLAC
================================================================================

Marcus Miller - Original Album Classic (2009) [5CDs BoxSet] {Dreyfus}
Marcus Miller - Original Album Classic (2009) [5CDs BoxSet] {Dreyfus}


CD4 • Marcus Miller – Silver Rain (2005)

Marcus Miller - Original Album Classic (2009) [5CDs BoxSet] {Dreyfus}


Track List
01. Intro Duction (0:31)
02. Bruce Lee (5:23)
03. La Villette (5:54)
04. Behind The Smile (6:25)
05. Frankenstein (6:33)
06. Moonlight Sonata (7:38)
07. Boogie On Reggae Woman (5:03)
08. Paris (Interlude) (1:15)
09. Silver Rain (featuring Eric Clapton) (6:07)
10. Make Up My Mind (3:42)
11. Girls And Boys (5:36)
12. Sophisticated Lady (5:23)
13. Power Of Soul (6:53)
14. Outro Duction (0:53)
15. The Lord's Prayer (2:43)
16. Silver Rain (featuring Joey Kibble) (6:35)

musicians
Marcus Miller - bass guitar, bass clarinet, drums, keyboards, soprano saxophone
Poogie Bell - drums
Gregoire Maret - harmonica
Crag J, Monyungo Jackson - percussion
Roger Byam - tenor saxophone

Produced by Marcus Miller


Exact Audio Copy V1.0 beta 1 from 15. November 2010

EAC extraction logfile from 19. January 2011, 22:54

Marcus Miller / Silver Rain

Used drive : MATSHITADVD-RAM UJ870BJ Adapter: 0 ID: 1

Read mode : Secure
Utilize accurate stream : Yes
Defeat audio cache : Yes
Make use of C2 pointers : No

Read offset correction : 102
Overread into Lead-In and Lead-Out : No
Fill up missing offset samples with silence : Yes
Delete leading and trailing silent blocks : No
Null samples used in CRC calculations : No
Used interface : Native Win32 interface for Win NT & 2000

Used output format : User Defined Encoder
Selected bitrate : 1024 kBit/s
Quality : High
Add ID3 tag : Yes
Command line compressor : C:\Program Files\Exact Audio Copy\FLAC\FLAC.EXE
Additional command line options : -6 -V -T "ARTIST=%a" -T "TITLE=%t" -T "ALBUM=%g" -T "DATE=%y" -T "TRACKNUMBER=%n" -T "GENRE=%m" -T "COMMENT=%e" %j–picture="%i"%j %s -o %d


TOC of the extracted CD

Track | Start | Length | Start sector | End sector
––––––––––––––––––––––––––––-
1 | 0:00.00 | 0:30.40 | 0 | 2289
2 | 0:30.40 | 5:23.02 | 2290 | 26516
3 | 5:53.42 | 5:54.03 | 26517 | 53069
4 | 11:47.45 | 6:24.52 | 53070 | 81921
5 | 18:12.22 | 6:33.35 | 81922 | 111431
6 | 24:45.57 | 7:38.00 | 111432 | 145781
7 | 32:23.57 | 5:02.53 | 145782 | 168484
8 | 37:26.35 | 1:14.60 | 168485 | 174094
9 | 38:41.20 | 6:06.42 | 174095 | 201586
10 | 44:47.62 | 3:42.15 | 201587 | 218251
11 | 48:30.02 | 5:36.28 | 218252 | 243479
12 | 54:06.30 | 5:23.10 | 243480 | 267714
13 | 59:29.40 | 6:53.27 | 267715 | 298716
14 | 66:22.67 | 0:53.23 | 298717 | 302714
15 | 67:16.15 | 2:43.11 | 302715 | 314950
16 | 69:59.26 | 6:34.39 | 314951 | 344539


Range status and errors

Selected range

Filename C:\Loss\Marcus Miller - Original Album Classic (2009) box 5 cd (flac)\Cd 4\Marcus Miller - Silver Rain.wav

Peak level 98.8 %
Extraction speed 0.1 X
Range quality 100.0 %
Copy CRC 8DC5CF89
Copy OK

No errors occurred


AccurateRip summary

Track 1 accurately ripped (confidence 3) [2C0843E8]
Track 2 accurately ripped (confidence 3) [CF8933D8]
Track 3 accurately ripped (confidence 3) [166D5422]
Track 4 accurately ripped (confidence 3) [F1CEB50D]
Track 5 accurately ripped (confidence 3) [7E624E41]
Track 6 accurately ripped (confidence 3) [2C56DE4B]
Track 7 accurately ripped (confidence 3) [5CD5380D]
Track 8 accurately ripped (confidence 3) [288356D6]
Track 9 accurately ripped (confidence 3) [79F92B8B]
Track 10 accurately ripped (confidence 3) [2C9C4ED7]
Track 11 accurately ripped (confidence 3) [571BC3E6]
Track 12 accurately ripped (confidence 3) [A429D1BF]
Track 13 accurately ripped (confidence 3) [5D252F87]
Track 14 accurately ripped (confidence 3) [66E45DB0]
Track 15 accurately ripped (confidence 3) [AE6DE74D]
Track 16 accurately ripped (confidence 3) [DF63A099]

All tracks accurately ripped

End of status report

==== Log checksum 01CF891E825D11324FDD3F66632ED15EF66822794FE805D3804913C6870C6D28 ====


––––––––––––––––––––––––––––––––––––––––
Analyzed: Marcus Miller / Silver Rain
––––––––––––––––––––––––––––––––––––––––

DR Peak RMS Duration Track
––––––––––––––––––––––––––––––––––––––––
DR9 -0.21 dB -10.93 dB 0:31 01-Intro Duction
DR7 -0.21 dB -9.16 dB 5:23 02-Bruce Lee
DR8 -0.20 dB -10.17 dB 5:54 03-La Villette
DR7 -0.21 dB -10.05 dB 6:25 04-Behind The Smile
DR8 -0.20 dB -9.88 dB 6:33 05-Frankenstein
DR9 -0.20 dB -12.70 dB 7:38 06-Moonlight Sonata
DR9 -0.20 dB -10.39 dB 5:03 07-Boogie On Reggae Woman
DR7 -0.69 dB -12.26 dB 1:15 08-Paris (Interlude)
DR8 -0.10 dB -9.02 dB 6:07 09-Silver Rain (featuring Eric Clapton)
DR11 -0.21 dB -13.75 dB 3:42 10-Make Up My Mind
DR8 -0.20 dB -10.58 dB 5:36 11-Girls And Boys
DR10 -0.21 dB -12.18 dB 5:23 12-Sophisticated Lady
DR7 -0.30 dB -8.79 dB 6:53 13-Power Of Soul
DR9 -0.21 dB -11.85 dB 0:53 14-Outro Duction
DR9 -0.21 dB -11.98 dB 2:43 15-The Lord's Prayer
DR8 -0.10 dB -9.16 dB 6:35 16-Silver Rain (featuring Joey Kibble)
––––––––––––––––––––––––––––––––––––––––

Number of tracks: 16
Official DR value: DR8

Samplerate: 44100 Hz
Channels: 2
Bits per sample: 16
Bitrate: 856 kbps
Codec: FLAC
================================================================================

Marcus Miller - Original Album Classic (2009) [5CDs BoxSet] {Dreyfus}
Marcus Miller - Original Album Classic (2009) [5CDs BoxSet] {Dreyfus}


CD5 - Marcus Miller – Tales (1994)

Marcus Miller - Original Album Classic (2009) [5CDs BoxSet] {Dreyfus}


Track List
01. The Blues 5:45
02. Tales (Intro) 0:30
03. Tales 5:46
04. Eric 6:16
05. True Geminis 5:35
06. Rush Over 5:00
07. Running Through My Dreams (Interlude) 1:27
08. Ethiopia 5:15
09. Strange Fruit (Intro) 1:20
10. Strange Fruit 2:14
11. Visions 5:36
12. Tales (Reprise) 2:34
13. Forevermore (Intro) 0:31
14. Forevermore 4:58
15. Infatuation 5:08
16. Come Together 5:30

musicians
Marcus Miller - bass, organ, synthesizer, african flute, guitar, piano, bass clarinet, keyboards, programming, sampling
Poogie Bell - drums
Michael "Patches" Stewart - trumpet
Dean Brown - guitar
Hiram Bullock - guitar
Kenny Garrett - alto sax
Lenny White - drum fills
Lalah Hathaway - vocals
Jason Miles - programming
Me'Shell Ndegeocello - synthesizer, vocals
Joshua Redman - tenor sax
Miles Davis - voice recording
Dave Ward - Programming
Bernard Wright - organ, synthesizer, clavinet, synthesizer bass, marimba

Produced by Marcus Miller


Exact Audio Copy V1.0 beta 1 from 15. November 2010

EAC extraction logfile from 19. January 2011, 22:54

Marcus Miller / Silver Rain

Used drive : MATSHITADVD-RAM UJ870BJ Adapter: 0 ID: 1

Read mode : Secure
Utilize accurate stream : Yes
Defeat audio cache : Yes
Make use of C2 pointers : No

Read offset correction : 102
Overread into Lead-In and Lead-Out : No
Fill up missing offset samples with silence : Yes
Delete leading and trailing silent blocks : No
Null samples used in CRC calculations : No
Used interface : Native Win32 interface for Win NT & 2000

Used output format : User Defined Encoder
Selected bitrate : 1024 kBit/s
Quality : High
Add ID3 tag : Yes
Command line compressor : C:\Program Files\Exact Audio Copy\FLAC\FLAC.EXE
Additional command line options : -6 -V -T "ARTIST=%a" -T "TITLE=%t" -T "ALBUM=%g" -T "DATE=%y" -T "TRACKNUMBER=%n" -T "GENRE=%m" -T "COMMENT=%e" %j–picture="%i"%j %s -o %d


TOC of the extracted CD

Track | Start | Length | Start sector | End sector
––––––––––––––––––––––––––––-
1 | 0:00.00 | 0:30.40 | 0 | 2289
2 | 0:30.40 | 5:23.02 | 2290 | 26516
3 | 5:53.42 | 5:54.03 | 26517 | 53069
4 | 11:47.45 | 6:24.52 | 53070 | 81921
5 | 18:12.22 | 6:33.35 | 81922 | 111431
6 | 24:45.57 | 7:38.00 | 111432 | 145781
7 | 32:23.57 | 5:02.53 | 145782 | 168484
8 | 37:26.35 | 1:14.60 | 168485 | 174094
9 | 38:41.20 | 6:06.42 | 174095 | 201586
10 | 44:47.62 | 3:42.15 | 201587 | 218251
11 | 48:30.02 | 5:36.28 | 218252 | 243479
12 | 54:06.30 | 5:23.10 | 243480 | 267714
13 | 59:29.40 | 6:53.27 | 267715 | 298716
14 | 66:22.67 | 0:53.23 | 298717 | 302714
15 | 67:16.15 | 2:43.11 | 302715 | 314950
16 | 69:59.26 | 6:34.39 | 314951 | 344539


Range status and errors

Selected range

Filename C:\Loss\Marcus Miller - Original Album Classic (2009) box 5 cd (flac)\Cd 4\Marcus Miller - Silver Rain.wav

Peak level 98.8 %
Extraction speed 0.1 X
Range quality 100.0 %
Copy CRC 8DC5CF89
Copy OK

No errors occurred


AccurateRip summary

Track 1 accurately ripped (confidence 3) [2C0843E8]
Track 2 accurately ripped (confidence 3) [CF8933D8]
Track 3 accurately ripped (confidence 3) [166D5422]
Track 4 accurately ripped (confidence 3) [F1CEB50D]
Track 5 accurately ripped (confidence 3) [7E624E41]
Track 6 accurately ripped (confidence 3) [2C56DE4B]
Track 7 accurately ripped (confidence 3) [5CD5380D]
Track 8 accurately ripped (confidence 3) [288356D6]
Track 9 accurately ripped (confidence 3) [79F92B8B]
Track 10 accurately ripped (confidence 3) [2C9C4ED7]
Track 11 accurately ripped (confidence 3) [571BC3E6]
Track 12 accurately ripped (confidence 3) [A429D1BF]
Track 13 accurately ripped (confidence 3) [5D252F87]
Track 14 accurately ripped (confidence 3) [66E45DB0]
Track 15 accurately ripped (confidence 3) [AE6DE74D]
Track 16 accurately ripped (confidence 3) [DF63A099]

All tracks accurately ripped

End of status report

==== Log checksum 01CF891E825D11324FDD3F66632ED15EF66822794FE805D3804913C6870C6D28 ====


––––––––––––––––––––––––––––––––––––––––
Analyzed: Marcus Miller / Silver Rain
––––––––––––––––––––––––––––––––––––––––

DR Peak RMS Duration Track
––––––––––––––––––––––––––––––––––––––––
DR9 -0.21 dB -10.93 dB 0:31 01-Intro Duction
DR7 -0.21 dB -9.16 dB 5:23 02-Bruce Lee
DR8 -0.20 dB -10.17 dB 5:54 03-La Villette
DR7 -0.21 dB -10.05 dB 6:25 04-Behind The Smile
DR8 -0.20 dB -9.88 dB 6:33 05-Frankenstein
DR9 -0.20 dB -12.70 dB 7:38 06-Moonlight Sonata
DR9 -0.20 dB -10.39 dB 5:03 07-Boogie On Reggae Woman
DR7 -0.69 dB -12.26 dB 1:15 08-Paris (Interlude)
DR8 -0.10 dB -9.02 dB 6:07 09-Silver Rain (featuring Eric Clapton)
DR11 -0.21 dB -13.75 dB 3:42 10-Make Up My Mind
DR8 -0.20 dB -10.58 dB 5:36 11-Girls And Boys
DR10 -0.21 dB -12.18 dB 5:23 12-Sophisticated Lady
DR7 -0.30 dB -8.79 dB 6:53 13-Power Of Soul
DR9 -0.21 dB -11.85 dB 0:53 14-Outro Duction
DR9 -0.21 dB -11.98 dB 2:43 15-The Lord's Prayer
DR8 -0.10 dB -9.16 dB 6:35 16-Silver Rain (featuring Joey Kibble)
––––––––––––––––––––––––––––––––––––––––

Number of tracks: 16
Official DR value: DR8

Samplerate: 44100 Hz
Channels: 2
Bits per sample: 16
Bitrate: 856 kbps
Codec: FLAC
================================================================================

Marcus Miller - Original Album Classic (2009) [5CDs BoxSet] {Dreyfus}
Marcus Miller - Original Album Classic (2009) [5CDs BoxSet] {Dreyfus}


Marcus Miller - Original Album Classic (2009) [5CDs BoxSet] {Dreyfus}


Thanks to the original ripper