Tags
Language
Tags

Marcus Miller - Tutu Revisited (2011) [2CDs+DVD9] {Dreyfuss Jazz}

Posted By: tiburon
Marcus Miller - Tutu Revisited (2011) [2CDs+DVD9] {Dreyfuss Jazz}

Marcus Miller - Tutu Revisited (2011) [2CDs+DVD9] {Dreyfuss Jazz}
EAC 1.0b1 | FLAC tracks level 8 | Cue+Log+M3U | Full Scans 300dpi | 939MB + 5% Recovery
DVD9 | DVD Decrypter | NTSC 16:9 (720x480) | ISO+MDS+MD5 | MPEG-2 | LPCM 48kHz, Dolby Digital 5ch. AC3 | 7.74 GB +5% Recovery
MP3 CBR 320 Kbps | 314MB + 5% Recovery
Genre: Jazz-Funk

This two-CD (plus DVD) set is a better bet than last year's A Night in Monte Carlo: it celebrates the same creative funkiness of the mid-80s Miles Davis bands that bass guitar virtuoso and composer/arranger Miller had a big hand in, but here in more focused form, without symphony orchestras or singers. The canny Miller still goes for a soul-pop bravura and some technical posturings Miles would have avoided (hard to imagine the Prince of Darkness doing anything as uncool as swapping quotes from Sonny Rollins's St Thomas with his sidemen, or letting his bass guitarist acknowledge a sharp sax solo with a congratulatory sliding-note whoop) but there's a lot of very inventive jazz-making here, particularly from the gifted young partnership of trumpeter Christian Scott and saxophonist Alex Han. Powerful 80s Miles themes – notably Splatch, Portia, Tutu, Full Nelson and Human Nature – mingle with earlier jazz landmarks, like a tender bass clarinet account of In a Sentimental Mood, and a brisk So What that includes Miller playing the famous Miles 1959 solo as a bass guitar feature. It's as much a general jazz celebration for funk audiences as it is about Miles alone, but Christian Scott is the ideal bearer of the late trumpeter's legacy.
Track List

CD1
1. Tomaas (Marcus Miller, Miles Davis)
2. Backyard Ritual (George Duke)
3. Splatch (Marcus Miller)
4. Portia (Marcus Miller)
5. Jean-Pierre (Miles Davis)
6. Aida (Miles Davis)
7. In A Sentimental Mood (Duke Ellington, Irving Mills, Manny Kurtz)

CD2
1. Hannibal (Marcus Miller)
2. Don't Lose Your Mind (Marcus Miller)
3. Tutu (Marcus Miller)
4. Full Nelson / Perfect Way (David Gamson, Gartside Paul Strohmeyer, Marcus Miller)
5. Human Nature / So What (John Bettis, Steven Porcaro, Miles Davis)

DVD
1. Concert
2. Documentary - Thoughts Of Miles

musicians
Marcus Miller - bass, bass clarinet
Christian Scott - trumpet
Alex Han - saxophone
Federico Gonzalez Pena - keyboards
Ronald Bruner, JR. - drums

Produced by Marcus Miller


Exact Audio Copy V1.0 beta 1 from 15. November 2010

EAC extraction logfile from 3. June 2011, 17:42

Marcus Miller / Tutu Revisited (CD1)

Used drive : HL-DT-STDVD-ROM GDR8164B Adapter: 0 ID: 1

Read mode : Secure
Utilize accurate stream : Yes
Defeat audio cache : Yes
Make use of C2 pointers : No

Read offset correction : 102
Overread into Lead-In and Lead-Out : No
Fill up missing offset samples with silence : Yes
Delete leading and trailing silent blocks : No
Null samples used in CRC calculations : Yes
Used interface : Native Win32 interface for Win NT & 2000
Gap handling : Appended to previous track

Used output format : User Defined Encoder
Selected bitrate : 768 kBit/s
Quality : High
Add ID3 tag : No
Command line compressor : C:\Archivos de programa\Exact Audio Copy\FLAC\FLAC.EXE
Additional command line options : -8 -V -T "ARTIST=%a" -T "TITLE=%t" -T "ALBUM=%g" -T "DATE=%y" -T "TRACKNUMBER=%n" -T "TOTALTRACKS=%x" -T "GENRE=%m" -T "ALBUMARTIST=%v" -T "ALBUM ARTIST=%v" -T "COMMENT=EAC Secure Mode, Test & Copy, AccurateRip, FLAC -8" %s


TOC of the extracted CD

Track | Start | Length | Start sector | End sector
––––––––––––––––––––––––––––-
1 | 0:00.00 | 12:13.48 | 0 | 55022
2 | 12:13.48 | 8:58.62 | 55023 | 95434
3 | 21:12.35 | 14:25.07 | 95435 | 160316
4 | 35:37.42 | 9:20.29 | 160317 | 202345
5 | 44:57.71 | 13:23.34 | 202346 | 262604
6 | 58:21.30 | 6:18.05 | 262605 | 290959
7 | 64:39.35 | 9:14.51 | 290960 | 332560


Track 1

Filename E:\FTP\01 - Tomaas.wav

Pre-gap length 0:00:02.00

Peak level 100.0 %
Extraction speed 3.0 X
Track quality 100.0 %
Test CRC EECFF7DE
Copy CRC EECFF7DE
Track not present in AccurateRip database
Copy OK

Track 2

Filename E:\FTP\02 - Backyard Ritual.wav

Peak level 100.0 %
Extraction speed 3.0 X
Track quality 100.0 %
Test CRC D9DF6606
Copy CRC D9DF6606
Track not present in AccurateRip database
Copy OK

Track 3

Filename E:\FTP\03 - Splatch.wav

Peak level 100.0 %
Extraction speed 3.1 X
Track quality 100.0 %
Test CRC 74F7E7EF
Copy CRC 74F7E7EF
Track not present in AccurateRip database
Copy OK

Track 4

Filename E:\FTP\04 - Portia.wav

Peak level 100.0 %
Extraction speed 3.0 X
Track quality 100.0 %
Test CRC D26B1626
Copy CRC D26B1626
Track not present in AccurateRip database
Copy OK

Track 5

Filename E:\FTP\05 - Jean-Pierre.wav

Peak level 100.0 %
Extraction speed 3.1 X
Track quality 100.0 %
Test CRC 6B461CC0
Copy CRC 6B461CC0
Track not present in AccurateRip database
Copy OK

Track 6

Filename E:\FTP\06 - Aida.wav

Peak level 100.0 %
Extraction speed 2.9 X
Track quality 100.0 %
Test CRC 2D8828E5
Copy CRC 2D8828E5
Track not present in AccurateRip database
Copy OK

Track 7

Filename E:\FTP\07 - In A Sentimental Mood.wav

Peak level 99.1 %
Extraction speed 2.8 X
Track quality 100.0 %
Test CRC FCF0B2DC
Copy CRC FCF0B2DC
Track not present in AccurateRip database
Copy OK


None of the tracks are present in the AccurateRip database

No errors occurred

End of status report

==== Log checksum F4CE6166D08647C94DF3FA29BA38516F254F98871F5E2413AB20FDA313C3B2E3 ====

Exact Audio Copy V1.0 beta 1 from 15. November 2010

EAC extraction logfile from 3. June 2011, 18:33

Marcus Miller / Tutu Revisited (CD2)

Used drive : HL-DT-STDVD-ROM GDR8164B Adapter: 0 ID: 1

Read mode : Secure
Utilize accurate stream : Yes
Defeat audio cache : Yes
Make use of C2 pointers : No

Read offset correction : 102
Overread into Lead-In and Lead-Out : No
Fill up missing offset samples with silence : Yes
Delete leading and trailing silent blocks : No
Null samples used in CRC calculations : Yes
Used interface : Native Win32 interface for Win NT & 2000
Gap handling : Appended to previous track

Used output format : User Defined Encoder
Selected bitrate : 768 kBit/s
Quality : High
Add ID3 tag : No
Command line compressor : C:\Archivos de programa\Exact Audio Copy\FLAC\FLAC.EXE
Additional command line options : -8 -V -T "ARTIST=%a" -T "TITLE=%t" -T "ALBUM=%g" -T "DATE=%y" -T "TRACKNUMBER=%n" -T "TOTALTRACKS=%x" -T "GENRE=%m" -T "ALBUMARTIST=%v" -T "ALBUM ARTIST=%v" -T "COMMENT=EAC Secure Mode, Test & Copy, AccurateRip, FLAC -8" %s


TOC of the extracted CD

Track | Start | Length | Start sector | End sector
––––––––––––––––––––––––––––-
1 | 0:00.00 | 11:28.48 | 0 | 51647
2 | 11:28.48 | 18:33.25 | 51648 | 135147
3 | 30:01.73 | 11:25.18 | 135148 | 186540
4 | 41:27.16 | 8:15.54 | 186541 | 223719
5 | 49:42.70 | 13:40.25 | 223720 | 285244


Track 1

Filename E:\FTP\01 - Hannibal.wav

Pre-gap length 0:00:02.00

Peak level 100.0 %
Extraction speed 3.0 X
Track quality 100.0 %
Test CRC 4552FE98
Copy CRC 4552FE98
Track not present in AccurateRip database
Copy OK

Track 2

Filename E:\FTP\02 - Don't Lose Your Mind.wav

Peak level 99.9 %
Extraction speed 3.0 X
Track quality 100.0 %
Test CRC 2665E4F1
Copy CRC 2665E4F1
Track not present in AccurateRip database
Copy OK

Track 3

Filename E:\FTP\03 - Tutu.wav

Peak level 100.0 %
Extraction speed 2.4 X
Track quality 100.0 %
Test CRC 4BEB92C1
Copy CRC 4BEB92C1
Track not present in AccurateRip database
Copy OK

Track 4

Filename E:\FTP\04 - Full Nelson - Perfect Way.wav

Peak level 100.0 %
Extraction speed 2.5 X
Track quality 100.0 %
Test CRC B65664DB
Copy CRC B65664DB
Track not present in AccurateRip database
Copy OK

Track 5

Filename E:\FTP\05 - Human Nature - So What.wav

Peak level 100.0 %
Extraction speed 2.8 X
Track quality 100.0 %
Test CRC 4D356C49
Copy CRC 4D356C49
Track not present in AccurateRip database
Copy OK


None of the tracks are present in the AccurateRip database

No errors occurred

End of status report

==== Log checksum D18E57234E3D1521F9E7B6A97E32BBB7DD3C9E6C541B8544C8C565ABB291A8C6 ====


Marcus Miller - Tutu Revisited (2011) [2CDs+DVD9] {Dreyfuss Jazz}
Marcus Miller - Tutu Revisited (2011) [2CDs+DVD9] {Dreyfuss Jazz}
Marcus Miller - Tutu Revisited (2011) [2CDs+DVD9] {Dreyfuss Jazz}

Marcus Miller - Tutu Revisited (2011) [2CDs+DVD9] {Dreyfuss Jazz}
Marcus Miller - Tutu Revisited (2011) [2CDs+DVD9] {Dreyfuss Jazz}
Marcus Miller - Tutu Revisited (2011) [2CDs+DVD9] {Dreyfuss Jazz}
Marcus Miller - Tutu Revisited (2011) [2CDs+DVD9] {Dreyfuss Jazz}


Marcus Miller - Tutu Revisited (2011) [2CDs+DVD9] {Dreyfuss Jazz}


Thanks to the original ripper