Subcategories

Maria João Pires - Mozart: Complete Piano Sonatas (5CD) (2005)

Posted By: tirexiss
Maria João Pires - Mozart: Complete Piano Sonatas (5CD) (2005)

Maria João Pires - Mozart: Complete Piano Sonatas (5CD) (2005)
EAC | FLAC (image+.cue, log) | Covers Included | 05:24:04 | 1.3 Gb
Genre: Classical | Label: Brilliant Classics | Catalog: 92733

The Portuguese pianist Maria Joa?o Pires has long been associated with the music of Mozart. Her delicacy of touch, vibrancy of phrasing and sense of fantasy mark her out as one of the elect who can touch his keyboard music without coarsening or sim- plifying it. She has made two complete cycles of the sonatas; reissued here is the first one, from the days in the 1970s when she first appeared on the international scene and won over listeners with a graceful purity of approach that left more famous names trailing in her wake. The later cycle brought added refinement, but anyone who is captivated by this still undervalued corpus – too difficult for beginners, yet scorned by many professionals in search of gaudier glories – will want to hear this set.

Maria João Pires - Mozart: Complete Piano Sonatas (5CD) (2005)

Track List:

CD 1:
01. Piano Sonata No.1 in C Major, KV.279: I. Allegro [0:04:58.55]
02. Piano Sonata No.1 in C Major, KV.279: II. Andante [0:04:27.33]
03. Piano Sonata No.1 in C Major, KV.279: III. Allegro [0:02:40.27]
04. Piano Sonata No.2 in F Major, KV.280: I. Allegro assai [0:04:47.43]
05. Piano Sonata No.2 in F Major, KV.280: II. Adagio [0:04:09.22]
06. Piano Sonata No.2 in F Major, KV.280: III. Presto [0:02:22.10]
07. Piano Sonata No.3 in B-flat Major, KV.281: I. Allegro [0:04:51.25]
08. Piano Sonata No.3 in B-flat Major, KV.281: II. Andante [0:03:58.48]
09. Piano Sonata No.3 in B-flat Major, KV.281: III. Rondeau: Allegro [0:04:39.25]
10. Piano Sonata No.4 in E-flat Major, KV.282: I. Adagio [0:06:26.40]
11. Piano Sonata No.4 in E-flat Major, KV.282: II. Menuetto [0:04:11.07]
12. Piano Sonata No.4 in E-flat Major, KV.282: III. Allegro [0:01:42.43]
13. Piano Sonata No.5 in G Major, KV.283: I. Allegro [0:03:55.57]
14. Piano Sonata No.5 in G Major, KV.283: II. Andante [0:03:17.05]
15. Piano Sonata No.5 in G Major, KV.283: III. Presto [0:03:12.08]

CD 2:
01. Piano Sonata No.6 in D major K.284 (1) Allegro [0:04:58.30]
02. Piano Sonata No.6 in D major K.284 (2) Rondeau en polonaise. Andante [0:04:36.53]
03. Piano Sonata No.6 in D major K.284 (3) Andante (Theme & Variations) [0:16:43.10]
04. Piano Sonata No.7 in C major K.309 (1) Allegro con spirito [0:05:50.25]
05. Piano Sonata No.7 in C major K.309 (2) Andante un poco adagio [0:05:51.07]
06. Piano Sonata No.7 in C major K.309 (3) Rondeau. Allegretto grazioso [0:07:07.18]
07. Piano Sonata No.8 in A minor K.310 (1) Allegro maestoso [0:05:28.05]
08. Piano Sonata No.8 in A minor K.310 (2) Andante cantabile con espressione [0:06:32.60]
09. Piano Sonata No.8 in A minor K.310 (3) Presto [0:02:44.70]
10. Rondo in D major K.485 [0:04:59.12]

CD 3:
01. Piano Sonata Nr. 9 D Major K.311 - 1. Allegro con spirito [0:04:21.32]
02. Piano Sonata Nr. 9 D Major K.311 - 2. Andante con espressione [0:05:01.08]
03. Piano Sonata Nr. 9 D Major K.311 - 3. Rondeau. Allegro [0:06:31.52]
04. Piano Sonata Nr. 10 C Major K.330 - 1. Allegro moderato [0:06:26.35]
05. Piano Sonata Nr. 10 C Major K.330 - 2. Andante cantabile [0:04:58.65]
06. Piano Sonata Nr. 10 C Major K.330 - 3. Allegretto [0:04:00.13]
07. Piano Sonata Nr. 11 A Major K.331 - 1. Andante grazioso [0:14:35.62]
08. Piano Sonata Nr. 11 A Major K.331 - 2. Menuetto [0:06:24.08]
09. Piano Sonata Nr. 11 A Major K.331 - 3. Alla Turca. Allegretto [0:04:32.35]
10. Rondo a minor K.511 [0:09:34.55]

CD 4:
01. Piano Sonata No. 12 F Major K.332 - 1. Allegro [0:06:28.67]
02. Piano Sonata No. 12 F Major K.332 - 2. Adagio [0:05:05.23]
03. Piano Sonata No. 12 F Major K.332 - 3. Allegro assai [0:04:57.55]
04. Piano Sonata No. 13 B Major K.333 - 1. Allegro [0:07:04.55]
05. Piano Sonata No. 13 B Major K.333 - 2. Andante cantabile [0:05:37.15]
06. Piano Sonata No. 13 B Major K.333 - 3. Allegretto grazioso [0:06:36.32]
07. Fantasia c minor K. 475 [0:11:53.05]
08. Piano Sonata No. 14 c minor K.457 - 1. Allegro molto [0:06:10.38]
09. Piano Sonata No. 14 c minor K.457 - 2. Adagio [0:07:52.52]
10. Piano Sonata No. 14 c minor K.457 - 3. Allegro assai [0:04:28.05]

CD 5:
01. Piano Sonata No. 15 F Major K.533 - I. Allegro [0:06:43.37]
02. Piano Sonata No. 15 F Major K.533 - II. Andante [0:06:54.43]
03. Piano Sonata No. 15 F Major K.533 - III. Rondeau. Allegretto [0:06:39.45]
04. Piano Sonata No. 16 C Major K.545 - I. Allegro [0:03:05.40]
05. Piano Sonata No. 16 C Major K.545 - II. Andante [0:04:22.32]
06. Piano Sonata No. 16 C Major K.545 - III. Rondo [0:01:48.13]
07. Piano Sonata No. 17 B flat Major K.570 - I. Allegro [0:05:36.20]
08. Piano Sonata No. 17 B flat Major K.570 - II. Adagio [0:06:17.22]
09. Piano Sonata No. 17 B flat Major K.570 - III. Allegretto [0:03:37.10]
10. Piano Sonata No. 18 D Major K.576 - I. Allegro [0:05:15.13]
11. Piano Sonata No. 18 D Major K.576 - II. Adagio [0:06:07.07]
12. Piano Sonata No. 18 D Major K.576 - III. Allegretto [0:04:45.03]
13. Fantasia d minor K.397 (385g) [0:06:02.22]

Performers:
Maria João Pires - piano

Exact Audio Copy V1.0 beta 3 from 29. August 2011

EAC extraction logfile from 6. July 2014, 12:00

Maria João Pires / Mozart - Piano Sonatas - Maria João Pires (Disc 1)

Used drive : TSSTcorpCDDVDW SH-222BB Adapter: 2 ID: 1

Read mode : Secure
Utilize accurate stream : Yes
Defeat audio cache : Yes
Make use of C2 pointers : No

Read offset correction : 6
Overread into Lead-In and Lead-Out : No
Fill up missing offset samples with silence : Yes
Delete leading and trailing silent blocks : No
Null samples used in CRC calculations : Yes
Used interface : Native Win32 interface for Win NT & 2000

Used output format : User Defined Encoder
Selected bitrate : 896 kBit/s
Quality : High
Add ID3 tag : No
Command line compressor : C:\Program Files\Exact Audio Copy\FLAC\FLAC.EXE
Additional command line options : -8 -V -T "TITLE=%title%" -T "ARTIST=%artist%" -T "ALBUMARTIST=%albumartist%" -T "ALBUM=%albumtitle%" -T "DATE=%year%" -T "TRACKNUMBER=%tracknr%" -T "TRACKTOTAL=%numtracks%" -T "GENRE=%genre%" -T "COMMENT=%comment%" -T "PERFORMER=%albuminterpret%" -T "COMPOSER=%composer%" %source% -o %dest%


TOC of the extracted CD

Track | Start | Length | Start sector | End sector
––––––––––––––––––––––––––––-
1 | 0:00.00 | 4:58.55 | 0 | 22404
2 | 4:58.55 | 4:27.33 | 22405 | 42462
3 | 9:26.13 | 2:40.27 | 42463 | 54489
4 | 12:06.40 | 4:47.43 | 54490 | 76057
5 | 16:54.08 | 4:09.22 | 76058 | 94754
6 | 21:03.30 | 2:22.10 | 94755 | 105414
7 | 23:25.40 | 4:51.25 | 105415 | 127264
8 | 28:16.65 | 3:58.48 | 127265 | 145162
9 | 32:15.38 | 4:39.25 | 145163 | 166112
10 | 36:54.63 | 6:26.40 | 166113 | 195102
11 | 43:21.28 | 4:11.07 | 195103 | 213934
12 | 47:32.35 | 1:42.43 | 213935 | 221627
13 | 49:15.03 | 3:55.57 | 221628 | 239309
14 | 53:10.60 | 3:17.05 | 239310 | 254089
15 | 56:27.65 | 3:12.08 | 254090 | 268497


Range status and errors

Selected range

Filename E:\4000\[4524] Mozart – Piano Sonatas – Maria João Pires\cd1\Mozart - Piano Sonatas - Maria João Pires (Disc 1).wav

Peak level 80.1 %
Extraction speed 6.3 X
Range quality 99.9 %
Test CRC 2FEFAF61
Copy CRC 2FEFAF61
Copy OK

No errors occurred


AccurateRip summary

Track 1 accurately ripped (confidence 9) [7A54959E] (AR v2)
Track 2 accurately ripped (confidence 9) [4BCF3AE9] (AR v2)
Track 3 accurately ripped (confidence 9) [1D9BDCD6] (AR v2)
Track 4 accurately ripped (confidence 9) [A2959978] (AR v2)
Track 5 accurately ripped (confidence 9) [860EAC36] (AR v2)
Track 6 accurately ripped (confidence 8) [5FABF5B7] (AR v2)
Track 7 accurately ripped (confidence 10) [FBFC9583] (AR v2)
Track 8 accurately ripped (confidence 9) [BA3D39D0] (AR v2)
Track 9 accurately ripped (confidence 9) [42E811EB] (AR v2)
Track 10 accurately ripped (confidence 9) [5D39A6FC] (AR v2)
Track 11 accurately ripped (confidence 9) [7EA056C9] (AR v2)
Track 12 accurately ripped (confidence 9) [275E81DC] (AR v2)
Track 13 accurately ripped (confidence 9) [7E761F34] (AR v2)
Track 14 accurately ripped (confidence 9) [A1709C14] (AR v2)
Track 15 accurately ripped (confidence 9) [2136E465] (AR v2)

All tracks accurately ripped

End of status report

==== Log checksum 6E75F5468EACA144E8AE4DCD957AC62B90782C63F31261C9C097E71130EF69C0 ====

Exact Audio Copy V1.0 beta 3 from 29. August 2011

EAC extraction logfile from 6. July 2014, 12:40

Maria João Pires / Mozart - Piano Sonatas - Maria João Pires (Disc 2)

Used drive : TSSTcorpCDDVDW SH-222BB Adapter: 2 ID: 1

Read mode : Secure
Utilize accurate stream : Yes
Defeat audio cache : Yes
Make use of C2 pointers : No

Read offset correction : 6
Overread into Lead-In and Lead-Out : No
Fill up missing offset samples with silence : Yes
Delete leading and trailing silent blocks : No
Null samples used in CRC calculations : Yes
Used interface : Native Win32 interface for Win NT & 2000

Used output format : User Defined Encoder
Selected bitrate : 896 kBit/s
Quality : High
Add ID3 tag : No
Command line compressor : C:\Program Files\Exact Audio Copy\FLAC\FLAC.EXE
Additional command line options : -8 -V -T "TITLE=%title%" -T "ARTIST=%artist%" -T "ALBUMARTIST=%albumartist%" -T "ALBUM=%albumtitle%" -T "DATE=%year%" -T "TRACKNUMBER=%tracknr%" -T "TRACKTOTAL=%numtracks%" -T "GENRE=%genre%" -T "COMMENT=%comment%" -T "PERFORMER=%albuminterpret%" -T "COMPOSER=%composer%" %source% -o %dest%


TOC of the extracted CD

Track | Start | Length | Start sector | End sector
––––––––––––––––––––––––––––-
1 | 0:00.00 | 4:58.30 | 0 | 22379
2 | 4:58.30 | 4:36.53 | 22380 | 43132
3 | 9:35.08 | 16:43.10 | 43133 | 118367
4 | 26:18.18 | 5:50.25 | 118368 | 144642
5 | 32:08.43 | 5:51.07 | 144643 | 170974
6 | 37:59.50 | 7:07.18 | 170975 | 203017
7 | 45:06.68 | 5:28.05 | 203018 | 227622
8 | 50:34.73 | 6:32.60 | 227623 | 257082
9 | 57:07.58 | 2:44.70 | 257083 | 269452
10 | 59:52.53 | 4:59.12 | 269453 | 291889


Range status and errors

Selected range

Filename E:\4000\[4524] Mozart – Piano Sonatas – Maria João Pires\cd2\Mozart - Piano Sonatas - Maria João Pires (Disc 2).wav

Peak level 57.1 %
Extraction speed 6.5 X
Range quality 100.0 %
Test CRC 74575309
Copy CRC 74575309
Copy OK

No errors occurred


AccurateRip summary

Track 1 accurately ripped (confidence 8) [E45350D6] (AR v2)
Track 2 accurately ripped (confidence 8) [92AAEADA] (AR v2)
Track 3 accurately ripped (confidence 8) [5C7601D8] (AR v2)
Track 4 accurately ripped (confidence 8) [3D01FF9D] (AR v2)
Track 5 accurately ripped (confidence 8) [A45B2FFE] (AR v2)
Track 6 accurately ripped (confidence 8) [E64E1806] (AR v2)
Track 7 accurately ripped (confidence 8) [4AE0C180] (AR v2)
Track 8 accurately ripped (confidence 8) [04CB2524] (AR v2)
Track 9 accurately ripped (confidence 8) [D76D01C9] (AR v2)
Track 10 accurately ripped (confidence 8) [8D1F9E90] (AR v2)

All tracks accurately ripped

End of status report

==== Log checksum 94E5A320F5033F5D3A82AC52E511C2F7F891B99CEE22F1755556539AED87D407 ====

Exact Audio Copy V1.0 beta 3 from 29. August 2011

EAC extraction logfile from 6. July 2014, 13:06

Maria João Pires / Mozart - Piano Sonatas - Maria João Pires (Disc 3)

Used drive : TSSTcorpCDDVDW SH-222BB Adapter: 2 ID: 1

Read mode : Secure
Utilize accurate stream : Yes
Defeat audio cache : Yes
Make use of C2 pointers : No

Read offset correction : 6
Overread into Lead-In and Lead-Out : No
Fill up missing offset samples with silence : Yes
Delete leading and trailing silent blocks : No
Null samples used in CRC calculations : Yes
Used interface : Native Win32 interface for Win NT & 2000

Used output format : User Defined Encoder
Selected bitrate : 896 kBit/s
Quality : High
Add ID3 tag : No
Command line compressor : C:\Program Files\Exact Audio Copy\FLAC\FLAC.EXE
Additional command line options : -8 -V -T "TITLE=%title%" -T "ARTIST=%artist%" -T "ALBUMARTIST=%albumartist%" -T "ALBUM=%albumtitle%" -T "DATE=%year%" -T "TRACKNUMBER=%tracknr%" -T "TRACKTOTAL=%numtracks%" -T "GENRE=%genre%" -T "COMMENT=%comment%" -T "PERFORMER=%albuminterpret%" -T "COMPOSER=%composer%" %source% -o %dest%


TOC of the extracted CD

Track | Start | Length | Start sector | End sector
––––––––––––––––––––––––––––-
1 | 0:00.00 | 4:21.32 | 0 | 19606
2 | 4:21.32 | 5:01.08 | 19607 | 42189
3 | 9:22.40 | 6:31.52 | 42190 | 71566
4 | 15:54.17 | 6:26.35 | 71567 | 100551
5 | 22:20.52 | 4:58.65 | 100552 | 122966
6 | 27:19.42 | 4:00.13 | 122967 | 140979
7 | 31:19.55 | 14:35.62 | 140980 | 206666
8 | 45:55.42 | 6:24.08 | 206667 | 235474
9 | 52:19.50 | 4:32.35 | 235475 | 255909
10 | 56:52.10 | 9:34.55 | 255910 | 299014


Range status and errors

Selected range

Filename E:\4000\[4524] Mozart – Piano Sonatas – Maria João Pires\cd3\Mozart - Piano Sonatas - Maria João Pires (Disc 3).wav

Peak level 68.1 %
Extraction speed 6.5 X
Range quality 100.0 %
Test CRC E9002BAA
Copy CRC E9002BAA
Copy OK

No errors occurred


AccurateRip summary

Track 1 accurately ripped (confidence 9) [728B3E66] (AR v2)
Track 2 accurately ripped (confidence 9) [2557AE40] (AR v2)
Track 3 accurately ripped (confidence 9) [D2308053] (AR v2)
Track 4 accurately ripped (confidence 9) [F21642CC] (AR v2)
Track 5 accurately ripped (confidence 9) [A4598694] (AR v2)
Track 6 accurately ripped (confidence 9) [DAB89893] (AR v2)
Track 7 accurately ripped (confidence 9) [250A47F1] (AR v2)
Track 8 accurately ripped (confidence 9) [C6C28B89] (AR v2)
Track 9 accurately ripped (confidence 9) [236434BF] (AR v2)
Track 10 accurately ripped (confidence 9) [5318B30A] (AR v2)

All tracks accurately ripped

End of status report

==== Log checksum 14B604FC8116504F713824BEE75371D0D5DBE009E6D844E2767FB8079BADD4B6 ====

Exact Audio Copy V1.0 beta 3 from 29. August 2011

EAC extraction logfile from 6. July 2014, 13:48

Maria João Pires / Mozart - Piano Sonatas - Maria João Pires (Disc 4)

Used drive : TSSTcorpCDDVDW SH-222BB Adapter: 2 ID: 1

Read mode : Secure
Utilize accurate stream : Yes
Defeat audio cache : Yes
Make use of C2 pointers : No

Read offset correction : 6
Overread into Lead-In and Lead-Out : No
Fill up missing offset samples with silence : Yes
Delete leading and trailing silent blocks : No
Null samples used in CRC calculations : Yes
Used interface : Native Win32 interface for Win NT & 2000

Used output format : User Defined Encoder
Selected bitrate : 896 kBit/s
Quality : High
Add ID3 tag : No
Command line compressor : C:\Program Files\Exact Audio Copy\FLAC\FLAC.EXE
Additional command line options : -8 -V -T "TITLE=%title%" -T "ARTIST=%artist%" -T "ALBUMARTIST=%albumartist%" -T "ALBUM=%albumtitle%" -T "DATE=%year%" -T "TRACKNUMBER=%tracknr%" -T "TRACKTOTAL=%numtracks%" -T "GENRE=%genre%" -T "COMMENT=%comment%" -T "PERFORMER=%albuminterpret%" -T "COMPOSER=%composer%" %source% -o %dest%


TOC of the extracted CD

Track | Start | Length | Start sector | End sector
––––––––––––––––––––––––––––-
1 | 0:00.00 | 6:28.67 | 0 | 29166
2 | 6:28.67 | 5:05.23 | 29167 | 52064
3 | 11:34.15 | 4:57.55 | 52065 | 74394
4 | 16:31.70 | 7:04.55 | 74395 | 106249
5 | 23:36.50 | 5:37.15 | 106250 | 131539
6 | 29:13.65 | 6:36.32 | 131540 | 161271
7 | 35:50.22 | 11:53.05 | 161272 | 214751
8 | 47:43.27 | 6:10.38 | 214752 | 242539
9 | 53:53.65 | 7:52.52 | 242540 | 277991
10 | 61:46.42 | 4:28.05 | 277992 | 298096


Range status and errors

Selected range

Filename E:\4000\[4524] Mozart – Piano Sonatas – Maria João Pires\cd4\Mozart - Piano Sonatas - Maria João Pires (Disc 4).wav

Peak level 66.9 %
Extraction speed 6.4 X
Range quality 100.0 %
Test CRC 502660BC
Copy CRC 502660BC
Copy OK

No errors occurred


AccurateRip summary

Track 1 accurately ripped (confidence 9) [96C334E1] (AR v2)
Track 2 accurately ripped (confidence 9) [64B453D7] (AR v2)
Track 3 accurately ripped (confidence 8) [40EA96DB] (AR v2)
Track 4 accurately ripped (confidence 9) [4EBD9271] (AR v2)
Track 5 accurately ripped (confidence 9) [8BA1DAB3] (AR v2)
Track 6 accurately ripped (confidence 10) [5ABD955D] (AR v2)
Track 7 accurately ripped (confidence 9) [568E9F86] (AR v2)
Track 8 accurately ripped (confidence 9) [86763134] (AR v2)
Track 9 accurately ripped (confidence 10) [274202CA] (AR v2)
Track 10 accurately ripped (confidence 9) [DC9C75DF] (AR v2)

All tracks accurately ripped

End of status report

==== Log checksum 3A4D3F20D4B174481AE51EA2D42B9659FF61314E53DD5BFE4B7FC518AED4F019 ====

Exact Audio Copy V1.0 beta 3 from 29. August 2011

EAC extraction logfile from 6. July 2014, 15:50

Maria João Pires / Mozart - Piano Sonatas - Maria João Pires (Disc 5)

Used drive : TSSTcorpCDDVDW SH-222BB Adapter: 2 ID: 1

Read mode : Secure
Utilize accurate stream : Yes
Defeat audio cache : Yes
Make use of C2 pointers : No

Read offset correction : 6
Overread into Lead-In and Lead-Out : No
Fill up missing offset samples with silence : Yes
Delete leading and trailing silent blocks : No
Null samples used in CRC calculations : Yes
Used interface : Native Win32 interface for Win NT & 2000

Used output format : User Defined Encoder
Selected bitrate : 896 kBit/s
Quality : High
Add ID3 tag : No
Command line compressor : C:\Program Files\Exact Audio Copy\FLAC\FLAC.EXE
Additional command line options : -8 -V -T "TITLE=%title%" -T "ARTIST=%artist%" -T "ALBUMARTIST=%albumartist%" -T "ALBUM=%albumtitle%" -T "DATE=%year%" -T "TRACKNUMBER=%tracknr%" -T "TRACKTOTAL=%numtracks%" -T "GENRE=%genre%" -T "COMMENT=%comment%" -T "PERFORMER=%albuminterpret%" -T "COMPOSER=%composer%" %source% -o %dest%


TOC of the extracted CD

Track | Start | Length | Start sector | End sector
––––––––––––––––––––––––––––-
1 | 0:00.00 | 6:43.37 | 0 | 30261
2 | 6:43.37 | 6:54.43 | 30262 | 61354
3 | 13:38.05 | 6:39.45 | 61355 | 91324
4 | 20:17.50 | 3:05.40 | 91325 | 105239
5 | 23:23.15 | 4:22.32 | 105240 | 124921
6 | 27:45.47 | 1:48.13 | 124922 | 133034
7 | 29:33.60 | 5:36.20 | 133035 | 158254
8 | 35:10.05 | 6:17.22 | 158255 | 186551
9 | 41:27.27 | 3:37.10 | 186552 | 202836
10 | 45:04.37 | 5:15.13 | 202837 | 226474
11 | 50:19.50 | 6:07.07 | 226475 | 254006
12 | 56:26.57 | 4:45.03 | 254007 | 275384
13 | 61:11.60 | 6:02.22 | 275385 | 302556


Range status and errors

Selected range

Filename E:\4000\[4524] Mozart – Piano Sonatas – Maria João Pires\cd5\Mozart - Piano Sonatas - Maria João Pires (Disc 5).wav

Peak level 71.2 %
Extraction speed 6.5 X
Range quality 100.0 %
Test CRC C8D2E263
Copy CRC C8D2E263
Copy OK

No errors occurred


AccurateRip summary

Track 1 accurately ripped (confidence 9) [3C1B1935] (AR v2)
Track 2 accurately ripped (confidence 9) [E65666BF] (AR v2)
Track 3 accurately ripped (confidence 9) [ADB7375A] (AR v2)
Track 4 accurately ripped (confidence 9) [0E47A416] (AR v2)
Track 5 accurately ripped (confidence 9) [BD77A0CE] (AR v2)
Track 6 accurately ripped (confidence 9) [7C6BF67F] (AR v2)
Track 7 accurately ripped (confidence 9) [0A1A7083] (AR v2)
Track 8 accurately ripped (confidence 9) [EEC0A572] (AR v2)
Track 9 accurately ripped (confidence 9) [EA5E48D3] (AR v2)
Track 10 accurately ripped (confidence 9) [99ADECCC] (AR v2)
Track 11 accurately ripped (confidence 9) [39BE79CF] (AR v2)
Track 12 accurately ripped (confidence 9) [D2D43084] (AR v2)
Track 13 accurately ripped (confidence 9) [C33836D7] (AR v2)

All tracks accurately ripped

End of status report

==== Log checksum 3241489705DB763F20B5DB9CAF2BE50966DD6B46A90FEA7DBCCA2EB6C9A08D6E ====

Thanks to the Original ripper (unknown)!

Welcome to my blog!

Download: