Tags
Language
Tags

Marie van Rhijn, Orchestre de l'Opéra Royal - Pergolesi, Vivaldi: Stabat Mater pour deux castrats (2021)

Posted By: ArlegZ
Marie van Rhijn, Orchestre de l'Opéra Royal - Pergolesi, Vivaldi: Stabat Mater pour deux castrats (2021)

Marie van Rhijn, Orchestre de l'Opéra Royal - Pergolesi, Vivaldi: Stabat Mater pour deux castrats (2021)
EAC | FLAC | Image (Cue & Log) ~ 321 Mb | Total time: 77:19 | Scans included
Classical | Label: Chateau de Versailles Spectacles | # CVS033 | Recorded: 2020

Two countertenors for Pergolesis Stabat Mater: this is the resurrection of the first performance in France of this work, introduced by two Italian Castratos from the Royal Chapel of Louis XV, who were enthusiastic propagators of it both at Court and at the Concert Spirituel. Paris was conquered and saw in it the revolutionary mark of a Neapolitan genius, who alas passed away so young. Pergolesi, shortly before his death at the age of 26 and affected by illness, expressed the Virgins suffering with the language of passion more typical of opera. The Stabat Mater, first performed in 1736, is one of the emblematic works of the baroque and had a profound effect on the musical world of the 18th century. To give full splendor to the sumptuous duet of angelic voices lamenting the pain of Mary at the foot of the Cross, two performers are required who blend their timbres, like the two Neapolitan castratos for whom this music was composed. The brilliant sopranist Samuel Marino and the no less brilliant counter tenor Filippo Mineccia form the exceptional duo for this programme of emotion and virtuosity.

Performer:
Samuel Mariño, sopraniste
Filippo Mineccia, contralto
Orchestre de l'Opéra Royal
Marie van Rhijn, orgue et direction

Track List:
Giovanni Battista Pergolesi (1710-1736)
Stabat Mater
01. I. Stabat Mater dolorosa
02. II. Cuius animam gementem
03. III. O quam tristis
04. IV. Quae maerebat et dolebat
05. V. Quis est homo
06. VI. Vidit suum dulcem natum
07. VII. Eia, mater, fons amoris
08. VIII. Fac ut ardeat cor meum
09. IX. Sancta Mater, istud agas
10. X. Fac, ut portem Christi mortem
11. XI. Inflammatus et accensus
12. XII. Quando corpus morietur
Antonio Vivaldi (1678-1741)
In furore iustissimae irae, RV626
13. I. Aria. In furore iustissimae irae (Allegro)
14. II. Recitativo. Miserationum Pater piisime
15. III. Aria. Tunc meus fletus (Largo)
16. IV. Alleluia (Allegro)
Concerto for Violin, Oboe and Organ in C major, RV 554a
17. I. Allegro
18. II. Adagio
19. III. Allegro
Stabat Mater, RV621
20. I. Stabat Mater
21. II. Cuius animam
22. III. O quam tristis
23. IV. Quis est homo
24. V. Quis non posset
25. VI. Pro peccatis
26. VII. Eja Mater
27. VIII. Fac ut ardeat
28. IX. Amen


Exact Audio Copy V1.3 from 2. September 2016

EAC extraction logfile from 22. March 2021, 20:35

Samuel Mariño, Filippo Mineccia, Marie van Rhijn, Orchestre de l'Opéra Royal / Pergolesi, Vivaldi - Stabat Mater

Used drive : HL-DT-STDVDRAM GH24NS95 Adapter: 1 ID: 0

Read mode : Secure
Utilize accurate stream : Yes
Defeat audio cache : Yes
Make use of C2 pointers : No

Read offset correction : 6
Overread into Lead-In and Lead-Out : No
Fill up missing offset samples with silence : Yes
Delete leading and trailing silent blocks : No
Null samples used in CRC calculations : Yes
Used interface : Native Win32 interface for Win NT & 2000

Used output format : User Defined Encoder
Selected bitrate : 768 kBit/s
Quality : High
Add ID3 tag : No
Command line compressor : C:\Program Files\Exact Audio Copy\FLAC\FLAC.EXE
Additional command line options : -6 -V -T "ARTIST=%artist%" -T "TITLE=%title%" -T "ALBUM=%albumtitle%" -T "DATE=%year%" -T "TRACKNUMBER=%tracknr%" -T "GENRE=%genre%" -T "COMMENT=%comment%" -T "BAND=%albuminterpret%" -T "ALBUMARTIST=%albuminterpret%" -T "COMPOSER=%composer%" %haslyrics%–tag-from-file=LYRICS="%lyricsfile%"%haslyrics% -T "DISCNUMBER=%cdnumber%" -T "TOTALDISCS=%totalcds%" -T "TOTALTRACKS=%numtracks%" %hascover%–picture="%coverfile%"%hascover% %source% -o %dest%


TOC of the extracted CD

Track | Start | Length | Start sector | End sector
––––––––––––––––––––––––––––-
1 | 0:00.00 | 4:01.45 | 0 | 18119
2 | 4:01.45 | 1:46.29 | 18120 | 26098
3 | 5:47.74 | 2:05.22 | 26099 | 35495
4 | 7:53.21 | 1:57.45 | 35496 | 44315
5 | 9:50.66 | 2:25.05 | 44316 | 55195
6 | 12:15.71 | 3:05.08 | 55196 | 69078
7 | 15:21.04 | 1:57.58 | 69079 | 77911
8 | 17:18.62 | 2:00.72 | 77912 | 86983
9 | 19:19.59 | 4:41.64 | 86984 | 108122
10 | 24:01.48 | 3:30.02 | 108123 | 123874
11 | 27:31.50 | 2:03.11 | 123875 | 133110
12 | 29:34.61 | 5:03.01 | 133111 | 155836
13 | 34:37.62 | 4:11.03 | 155837 | 174664
14 | 38:48.65 | 0:43.08 | 174665 | 177897
15 | 39:31.73 | 7:02.57 | 177898 | 209604
16 | 46:34.55 | 1:31.31 | 209605 | 216460
17 | 48:06.11 | 4:29.35 | 216461 | 236670
18 | 52:35.46 | 3:21.09 | 236671 | 251754
19 | 55:56.55 | 3:21.65 | 251755 | 266894
20 | 59:18.45 | 2:54.54 | 266895 | 279998
21 | 62:13.24 | 1:29.25 | 279999 | 286698
22 | 63:42.49 | 1:41.58 | 286699 | 294331
23 | 65:24.32 | 2:39.21 | 294332 | 306277
24 | 68:03.53 | 1:51.27 | 306278 | 314629
25 | 69:55.05 | 1:40.66 | 314630 | 322195
26 | 71:35.71 | 3:32.62 | 322196 | 338157
27 | 75:08.58 | 1:24.08 | 338158 | 344465
28 | 76:32.66 | 0:58.11 | 344466 | 348826


Range status and errors

Selected range

Filename C:\Program Files\Exact Audio Copy\Marie van Rhijn - Pergolesi, Vivaldi - Stabat Mater.wav

Peak level 97.7 %
Extraction speed 2.1 X
Range quality 99.9 %
Test CRC 4A782D76
Copy CRC 4A782D76
Copy OK

No errors occurred

End of status report

Marie van Rhijn, Orchestre de l'Opéra Royal - Pergolesi, Vivaldi: Stabat Mater pour deux castrats (2021)

Thanks to the original releaser