Tags
Language
Tags
February 2024
Su Mo Tu We Th Fr Sa
28 29 30 31 1 2 3
4 5 6 7 8 9 10
11 12 13 14 15 16 17
18 19 20 21 22 23 24
25 26 27 28 29 1 2
Attention❗ To save your time, in order to download anything on this site, you must be registered 👉 HERE. If you do not have a registration yet, it is better to do it right away. ✌

( • )( • ) ( ͡⚆ ͜ʖ ͡⚆ ) (‿ˠ‿)
SpicyMags.xyz

Marilyn Horne - Just for the Record: The Golden Voice (2003)

Posted By: tirexiss
Marilyn Horne - Just for the Record: The Golden Voice (2003)

Marilyn Horne - Just for the Record: The Golden Voice (2003)
EAC | APE (image+.cue, log) | Covers Included | 02:37:39 | 686 MB
Genre: Classical, Vocal | Label: Decca | Catalog: 000151202

If you're looking for one album documenting the career of Marilyn Horne, this is the one to buy. Composed mostly of operatic excerpts from the 1960s and '70s, but also including some art song and concert selections from the 1980s, Decca's Just for the Record: The Golden Voice captures the sound and fury of Horne in her prime. Most everything Horne was known for is here: Handel, Rossini, Bellini, some Verdi, and Bizet's Carmen. The combination of style, agility, and sheer amplitude that she brought to this music is irresistible, even if Horne's distinctive, somewhat snarly timbre isn't your cup of tea. The opening "Habanera" has a rhythmic restraint and style that, while less earthy than some Carmens, takes on a smiling dramatic tension, even as an excerpt. The Rossini and Handel selections have all the kinetic energy and pathos they could want, and the excerpts from Norma and Il Trovatore document her exciting partnerships with Joan Sutherland and Luciano Pavarotti. Of the art song and concert excerpts on the second disc, Nin's "Jesús de Nazareth," with pianist Martin Katz, and Aaron Copland's "I bought me a cat" are the highlights (no one could ask for a better quacking duck than Horne's!).

Marilyn Horne - Just for the Record: The Golden Voice (2003)

Track List:

CD 1:
1. L'amour est un oiseau rebelle (Habanera) / Bizet - ''Carmen''
The Manhattan Opera Chorus
The Metropolitan Opera Orchestra / Leonard Bernstein
2. Mon coeur s'ouvre a ta voix / Saint-Saens - ''Samson et Dalila''
Wiener Opernorchester / Henry Lewis
3. Eccomi al fine in Babilonia / Rossini - ''Semiramide''
4. Cruda sorte! / Rossini - ''L'italiana in Algeri''
Tracks 3-4: Orchestra of the Royal Opera House, Covent Garden / Henry Lewis
5. Hence, Iris, hence away / Handel - ''Semele''
The New Symphony Orchestra of London / Richard Bonynge
6. Dove sei, amato bene? / Handel - ''Rodelinda''
Vienna Cantata Orchestra / Henry Lewis
7. Che disse! che ascoltai! / Gluck - ''Orfeo ed Euridice''
8. Addio, addio o miei sospiri / Gluck - ''Orfeo ed Euridice''
Tracks 7-8: Orchestra of the Royal Opera House, Covent Garden / Sir Georg Solti
9. O Pretres de Baal - O toi, qui m'abandonne / Meyerbeer - ''Le Prophete''
Orchestra of the Royal Opera House, Covent Garden / Henry Lewis
10. Elle est la! Pres de lui! / Thomas - ''Mignon''
Wiener Opernorchestrer / Henry Lewis
11. Mura felici / Rossini - ''La donna del lago''
12. Tanti affetti / Rossini - ''La donna del lago''
Ambrosian Opera Chorus
Tracks 11-12: Royal Philharmonic Orchestra / Henry Lewis

Exact Audio Copy V0.99 prebeta 3 from 28. July 2007

EAC extraction logfile from 8. September 2007, 21:11

Marilyn Horne / Just for the Record - The Golden Voice Disc 1

Used drive : LG CD-ROM CRD-8522B Adapter: 1 ID: 1

Read mode : Secure
Utilize accurate stream : Yes
Defeat audio cache : Yes
Make use of C2 pointers : No

Read offset correction : -491
Overread into Lead-In and Lead-Out : No
Fill up missing offset samples with silence : Yes
Delete leading and trailing silent blocks : No
Null samples used in CRC calculations : Yes
Used interface : Installed external ASPI interface

Used output format : Internal WAV Routines
Sample format : 44.100 Hz; 16 Bit; Stereo


TOC of the extracted CD

Track | Start | Length | Start sector | End sector
––––––––––––––––––––––––––––-
1 | 0:00.00 | 5:01.43 | 0 | 22617
2 | 5:01.43 | 6:30.38 | 22618 | 51905
3 | 11:32.06 | 11:11.32 | 51906 | 102262
4 | 22:43.38 | 4:50.69 | 102263 | 124081
5 | 27:34.32 | 3:41.23 | 124082 | 140679
6 | 31:15.55 | 6:59.71 | 140680 | 172175
7 | 38:15.51 | 2:08.26 | 172176 | 181801
8 | 40:24.02 | 4:22.28 | 181802 | 201479
9 | 44:46.30 | 9:41.44 | 201480 | 245098
10 | 54:27.74 | 4:44.20 | 245099 | 266418
11 | 59:12.19 | 10:54.48 | 266419 | 315516
12 | 70:06.67 | 9:14.22 | 315517 | 357088


Range status and errors

Selected range

Filename P:\AudioCD\Just for the Record - The Golden Voice\Marilyn Horne - Just for the Record - The Golden Voice Disc 1.wav

Peak level 98.1 %
Range quality 99.9 %
Copy CRC 0C4919C1
Copy OK

No errors occurred

End of status report

CD 2:
1. Superbo di me stesso / Lampugnani - ''Meraspe''
New Symphony Orchestra of London / Richard Bonynge
2. Il segreto per esser felici / Donizetti - ''Lucrezia Borgia''
London Symphony Chorus
London Symphony Orchestra / Richard Bonynge
3. Mi chiami, o Norma! / Bellini - ''Norma'' (with Joan Sutherland)
4. Deh! con te, con te li prendi / Bellini - ''Norma'' (with Joan Sutherland)
5. Mira, o Norma / Bellini - ''Norma'' (with Joan Sutherland)
6. Si, fino all'ore estreme / Bellini - ''Norma'' (with Joan Sutherland)
Tracks 3-6: London Symphony Orchestra / Richard Bonynge
7. Soli or siamo - Condotta ell'era in ceppi / Verdi - ''Il trovatore'' (with Luciano Pavarotti)
8. Non son tuo figlio? / Verdi - ''Il trovatore'' (with Luciano Pavarotti)
9. Mal reggendo / Verdi - ''Il trovatore'' (with Luciano Pavarotti, Wynford Evans)
Tracks 7-9: National Philharmonic Orchestra / Richard Bonynge
10. E un anatema! / Ponchielli - ''La Gioconda'' (with Renata Tebaldi)
Orchestra dell'Accademia di Santa Cecilia, Roma / Lamberto Gardelli
11. Nacht und Traume / Schubert, D827
12. Abendlied / Schumann
Tracks 11-12: Martin Katz, piano
13. Traume / Wagner - ''Wesendonck Lieder''
Royal Philharmonic Orchestra / Henry Lewis
14. Jesus de Nazareth / Nin
Martin Katz, piano
15. Shenandoah / Traditional (arr. Carl Davis)
16. I bought me a cat / Copland - ''Old American Songs''
17. The Lord's Prayer / Malotte (arr. Carl Davis)
Tracks 15-17: English Chamber Orchestra / Carl Davis
18. Somewhere / Bernstein - ''West Side Story''
Leonard Bernstein Orchestra / Leonard Bernstein
19. At the River (Lowry) / Copland - ''Old American Songs''
20. Jeannie with the light brown hair / Foster (arr. David Matthews)
Osian Ellis, harp
Tracks 19-20: English Chamber Orchestra / Carl Davis

Exact Audio Copy V0.99 prebeta 3 from 28. July 2007

EAC extraction logfile from 8. September 2007, 21:41

Marilyn Horne / Just for the Record - The Golden Voice Disc 2

Used drive : LG CD-ROM CRD-8522B Adapter: 1 ID: 1

Read mode : Secure
Utilize accurate stream : Yes
Defeat audio cache : Yes
Make use of C2 pointers : No

Read offset correction : -491
Overread into Lead-In and Lead-Out : No
Fill up missing offset samples with silence : Yes
Delete leading and trailing silent blocks : No
Null samples used in CRC calculations : Yes
Used interface : Installed external ASPI interface

Used output format : Internal WAV Routines
Sample format : 44.100 Hz; 16 Bit; Stereo


TOC of the extracted CD

Track | Start | Length | Start sector | End sector
––––––––––––––––––––––––––––-
1 | 0:00.00 | 3:18.17 | 0 | 14866
2 | 3:18.17 | 3:25.15 | 14867 | 30256
3 | 6:43.32 | 2:37.13 | 30257 | 42044
4 | 9:20.45 | 3:55.74 | 42045 | 59743
5 | 13:16.44 | 5:37.59 | 59744 | 85077
6 | 18:54.28 | 2:19.67 | 85078 | 95569
7 | 21:14.20 | 6:16.59 | 95570 | 123828
8 | 27:31.04 | 2:30.30 | 123829 | 135108
9 | 30:01.34 | 4:39.21 | 135109 | 156054
10 | 34:40.55 | 3:52.42 | 156055 | 173496
11 | 38:33.22 | 4:09.57 | 173497 | 192228
12 | 42:43.04 | 6:16.26 | 192229 | 220454
13 | 48:59.30 | 5:58.68 | 220455 | 247372
14 | 54:58.23 | 3:46.48 | 247373 | 264370
15 | 58:44.71 | 3:09.73 | 264371 | 278618
16 | 61:54.69 | 2:20.07 | 278619 | 289125
17 | 64:15.01 | 3:57.45 | 289126 | 306945
18 | 68:12.46 | 2:41.04 | 306946 | 319024
19 | 70:53.50 | 3:25.30 | 319025 | 334429
20 | 74:19.05 | 4:15.54 | 334430 | 353608


Range status and errors

Selected range

Filename P:\AudioCD\Just for the Record - The Golden Voice\Marilyn Horne - Just for the Record - The Golden Voice Disc 2.wav

Peak level 100.0 %
Range quality 99.9 %
Copy CRC 8E485DB0
Copy OK

No errors occurred

End of status report

Thanks to the Original ripper (unknown)!

Download: