Tags
Language
Tags

Marios Papadopoulos, Royal Philharmonic Orchestra - Stravinsky: Concerto, Janáček: Capriccio & Piano Sonata (1985) Re-Up

Posted By: tirexiss
Marios Papadopoulos, Royal Philharmonic Orchestra - Stravinsky: Concerto, Janáček: Capriccio & Piano Sonata (1985)  Re-Up

Marios Papadopoulos, Royal Philharmonic Orchestra - Stravinsky: Concerto, Janáček: Capriccio & Piano Sonata (1985)
EAC | FLAC (image+.cue, log) | Covers + Digital booklet | 53:08 | 245 MB
Genre: Classical | Label: Hyperion | Catalog: CDA66167

Marios Papadopoulos plays Janacek's sonata with a gentle, romanticizing melancholy that is nature can well encompass, even if such an approach can diminish the work's sense of tragedy. It is a work with a tougher core than is here suggested. However, this is not an unattractive performance, and Papadopoulos seems more attuned to its manner than to the crisp assertions of the Capriccio or of Stravinsky's Concerto. It does not seem a good idea to attempt the Capriccio without a conductor. The admirable RPO players sound less than wholly comfortable, and their ensemble is a trifle precarious at times; moreover, the work's odd, sharp character does not emerge with sufficient definition.
Something of the same is true of the performance of Stravinsky's Concerto, a work whose brusqueness here loses something of its strength. The balance in both works is tricky: the engineers have done well in the Capriccio, but there are places in the Concerto, especially near the start, where the piano is not sufficiently defined.'

Marios Papadopoulos, Royal Philharmonic Orchestra - Stravinsky: Concerto, Janáček: Capriccio & Piano Sonata (1985)  Re-Up

Track List:

Igor Stravinsky (1882-1971)
[1] - [3] Concerto for piano, brass orchestra, timpani and basses

Leoš Janáček (1854-1928)
[4]-[5] Piano Sonata '1.X.1905, From the street'
[6]-[9] Capriccio for piano left hand and wind instruments

Performers:
Marios Papadopoulos piano
Royal Philharmonic Orchestra

Exact Audio Copy V1.1 from 23. June 2015

EAC extraction logfile from 17. November 2016, 20:38

Marios Papadopoulos, Royal Philharmonic Orchestra / Stravinsky - Concerto; Janacek - Capriccio & Sonata

Used drive : HL-DT-STDVDRAM GU70N Adapter: 1 ID: 0

Read mode : Secure
Utilize accurate stream : Yes
Defeat audio cache : Yes
Make use of C2 pointers : No

Read offset correction : 48
Overread into Lead-In and Lead-Out : No
Fill up missing offset samples with silence : Yes
Delete leading and trailing silent blocks : No
Null samples used in CRC calculations : Yes
Used interface : Native Win32 interface for Win NT & 2000

Used output format : User Defined Encoder
Selected bitrate : 128 kBit/s
Quality : High
Add ID3 tag : No
Command line compressor : C:\Program Files (x86)\Exact Audio Copy\Flac\flac.exe
Additional command line options : -V -8 -T "Date=%year%" -T "Genre=%genre%" %source%


TOC of the extracted CD

Track | Start | Length | Start sector | End sector
––––––––––––––––––––––––––––-
1 | 0:00.00 | 7:42.20 | 0 | 34669
2 | 7:42.20 | 6:58.17 | 34670 | 66036
3 | 14:40.37 | 5:33.00 | 66037 | 91011
4 | 20:13.37 | 5:17.38 | 91012 | 114824
5 | 25:31.00 | 6:41.37 | 114825 | 144936
6 | 32:12.37 | 5:02.58 | 144937 | 167644
7 | 37:15.20 | 5:40.72 | 167645 | 193216
8 | 42:56.17 | 3:48.30 | 193217 | 210346
9 | 46:44.47 | 6:27.03 | 210347 | 239374


Range status and errors

Selected range

Filename C:\temp\Stravinsky - Concerto; Janacek - Capriccio & Sonata\Stravinsky - Concerto; Janacek - Capriccio & Sonata.wav

Peak level 77.8 %
Extraction speed 4.8 X
Range quality 100.0 %
Test CRC BD6B935C
Copy CRC BD6B935C
Copy OK

No errors occurred


AccurateRip summary

Track 1 accurately ripped (confidence 2) [1EF41270] (AR v2)
Track 2 accurately ripped (confidence 2) [CA8F3772] (AR v2)
Track 3 accurately ripped (confidence 2) [306AE1C0] (AR v2)
Track 4 accurately ripped (confidence 2) [957E54AE] (AR v2)
Track 5 accurately ripped (confidence 2) [8F1F5940] (AR v2)
Track 6 accurately ripped (confidence 2) [F885AFA1] (AR v2)
Track 7 accurately ripped (confidence 2) [CD08C24B] (AR v2)
Track 8 accurately ripped (confidence 2) [A969A6F9] (AR v2)
Track 9 accurately ripped (confidence 2) [2AD08BFD] (AR v2)

All tracks accurately ripped

End of status report

==== Log checksum 380220C897B77C313E8A3CE81F7D6080121D6FD88E843AAC95D90999051D9CBB ====

[CUETools log; Date: 24.11.2016 10:51:06; Version: 2.1.5]
[CTDB TOCID: uDDd80xE1kTwdDUV9C7U2lvlpj0-] found.
Track | CTDB Status
1 | (1/1) Accurately ripped
2 | (1/1) Accurately ripped
3 | (1/1) Accurately ripped
4 | (1/1) Accurately ripped
5 | (1/1) Accurately ripped
6 | (1/1) Accurately ripped
7 | (1/1) Accurately ripped
8 | (1/1) Accurately ripped
9 | (1/1) Accurately ripped
[AccurateRip ID: 001341f1-008a921b-7c0c7709] found.
Track [ CRC | V2 ] Status
01 [dd5e7dd8|1ef41270] (0+2/2) Accurately ripped
02 [c12f6e1f|ca8f3772] (0+2/2) Accurately ripped
03 [6f7634eb|306ae1c0] (0+2/2) Accurately ripped
04 [2485091d|957e54ae] (0+2/2) Accurately ripped
05 [8474ef06|8f1f5940] (0+2/2) Accurately ripped
06 [65bdf7df|f885afa1] (0+2/2) Accurately ripped
07 [8f11ffed|cd08c24b] (0+2/2) Accurately ripped
08 [153077aa|a969a6f9] (0+2/2) Accurately ripped
09 [fc7e1c3c|2ad08bfd] (0+2/2) Accurately ripped

Track Peak [ CRC32 ] [W/O NULL] [ LOG ]
– 77,8 [BD6B935C] [892DAE89] CRC32
01 75,7 [BEB2B6E6] [8CE860BA]
02 76,6 [435812C8] [EE9A448D]
03 77,8 [3ECD55DD] [4EF6D08B]
04 69,9 [DAEEF888] [828C178C]
05 77,3 [64DFBEC6] [46949204]
06 63,7 [D74A1664] [B70C72FD]
07 46,1 [A98191A3] [0266FABD]
08 42,3 [4C58F3FA] [25145CC9]
09 66,5 [A9F7A724] [910E46E0]

Marios Papadopoulos, Royal Philharmonic Orchestra - Stravinsky: Concerto, Janáček: Capriccio & Piano Sonata (1985)  Re-Up

Thanks to the Original ripper A-Z!

Download: