Subcategories

Mark May & The Agitators - Telephone Road Houston, TX (1997)

Posted By: popsakov
Mark May & The Agitators - Telephone Road Houston, TX (1997)

Mark May & The Agitators - Telephone Road Houston, TX (1997)
EAC Rip | FLAC (Img) + Cue + Log ~ 452 Mb | MP3 CBR320 ~ 165 Mb
Scans Included | 01:03:08 | RAR 5% Recovery
Modern Electric Blues, Texas Blues, Blues Rock | Icehouse Records #ICD 9422-2

Blues-rock with a distinct Texas edge is Mark May's thing. His playing recalls various Texas legends like Johnny Winter and Albert Collins, while always skirting the rock speed-demon side of the musical equation. This outing finds him surrounded by his regular rhythm section of Dan Cooper on bass, Travis Doyle on organ and Greg Grubbs on drums. May shares guitar soloing duties throughout the album with Alan Haynes ("Don't Give Up"), Billy Wells ("Mercury Blues") and Larry McCray (an impassioned Albert Collins duel on their mentor's "The Lights Are On, But Nobody's Home"), producing fireworks with every trill and bent note. Also noteworthy are several tracks featuring the Memphis Horns, who shine brightly on "Icehouse Special" and the soul ballad "Took Me By Surprise." When May keeps his playing roped in and restrained, the musical results are well worth a second listen.

~ by Cub Koda, All Music

***************

Mark May & The Agitators - Telephone Road Houston, TX (1997)

Mark May & The Agitators - Telephone Road Houston, TX (1997)

Track List:

01. Mercury Blues [0:05:19.06]
02. Don't Give Up [0:05:42.16]
03. Sweet Spot [0:04:54.10]
04. Lights Are On But Nobody's Home [0:09:18.62]
05. Joann [0:04:32.40]
06. Telephone Road [0:05:35.57]
07. Icehouse Special [0:05:47.52]
08. Back In The Joint [0:03:38.70]
09. Took Me By Surprise [0:06:03.37]
10. She's A Stranger [0:05:37.73]
11. I'll Be Around [0:05:33.00]
12. Helena Hangover [0:01:05.26]

Exact Audio Copy V0.99 prebeta 4 from 23. January 2008

Отчёт EAC об извлечении, выполненном 26. сентября 2010, 13:08

Mark May & The Agitators / Telephone Road Houston, TX

Дисковод: PLEXTOR DVDR PX-820A Adapter: 3 ID: 1

Режим чтения : Достоверность
Использование точного потока : Да
Отключение кэша аудио : Да
Использование указателей C2 : Нет

Коррекция смещения при чтении : 48
Способность читать области Lead-in и Lead-out : Нет
Заполнение пропущенных сэмплов тишиной : Да
Удаление блоков с тишиной в начале и конце : Нет
При вычислениях CRC использовались нулевые сэмплы : Да
Интерфейс : Встроенный Win32-интерфейс для Win NT/2000

Выходной формат : Внутренние WAV-операции
Формат сэмплов : 44.100 Гц; 16 бит; стерео


TOC извлечённого CD

Трек | Старт | Длительность | Начальный сектор | Конечный сектор
––––––––––––––––––––––––––––––––––-
1 | 0:00.00 | 5:19.05 | 0 | 23929
2 | 5:19.05 | 5:42.12 | 23930 | 49591
3 | 11:01.17 | 4:54.08 | 49592 | 71649
4 | 15:55.25 | 9:18.47 | 71650 | 113546
5 | 25:13.72 | 4:32.30 | 113547 | 133976
6 | 29:46.27 | 5:35.43 | 133977 | 159144
7 | 35:21.70 | 5:47.39 | 159145 | 185208
8 | 41:09.34 | 3:38.53 | 185209 | 201611
9 | 44:48.12 | 6:03.28 | 201612 | 228864
10 | 50:51.40 | 5:37.55 | 228865 | 254194
11 | 56:29.20 | 5:33.00 | 254195 | 279169
12 | 62:02.20 | 1:05.20 | 279170 | 284064


Характеристики диапазона извлечения и сообщения об ошибках

Выбранный диапазон

Имя файла D:\КОЛЛЕКЦИЯ 7\MARK MAY & THE ALIGATORS\TELEPHONE ROAD HOUSTON. TX\Mark May & The Agitators - Telephone Road Houston, TX.wav

Пиковый уровень 99.9 %
Качество диапазона 99.9 %
CRC копии F96AEA43
Копирование… OK

Ошибок не произошло


AccurateRip: сводка

Трек 1 нет в базе данных
Трек 2 нет в базе данных
Трек 3 нет в базе данных
Трек 4 нет в базе данных
Трек 5 нет в базе данных
Трек 6 нет в базе данных
Трек 7 нет в базе данных
Трек 8 нет в базе данных
Трек 9 нет в базе данных
Трек 10 нет в базе данных
Трек 11 нет в базе данных
Трек 12 нет в базе данных

Ни одного трека нет в базе AccurateRip

Конец отчёта

[CUETools log; Date: 07.04.2020 0:35:57; Version: 2.1.6]
[CTDB TOCID: drdmj7W4eXkB_o2MJqXlEUlQbL0-] found.
Track | CTDB Status
1 | (7/8) Accurately ripped
2 | (8/8) Accurately ripped
3 | (8/8) Accurately ripped
4 | (7/8) Accurately ripped
5 | (8/8) Accurately ripped
6 | (8/8) Accurately ripped
7 | (8/8) Accurately ripped
8 | (8/8) Accurately ripped
9 | (7/8) Accurately ripped
10 | (8/8) Accurately ripped
11 | (8/8) Accurately ripped
12 | (8/8) Accurately ripped
[AccurateRip ID: 001e49bd-0118a685-a20ecb0c] found.
Track [ CRC | V2 ] Status
01 [4399e433|d25223af] (1+1/5) Accurately ripped
02 [4f375633|f56edc7a] (1+1/5) Accurately ripped
03 [b04d4d3e|8387019a] (1+1/5) Accurately ripped
04 [e58cdfda|97f65502] (1+1/5) Accurately ripped
05 [9aceea02|a6013b0a] (1+1/5) Accurately ripped
06 [67f1e16d|2fb1aa09] (1+1/5) Accurately ripped
07 [826149fc|40759577] (1+0/5) Accurately ripped
08 [6a32314f|5afb280f] (1+1/5) Accurately ripped
09 [ff682d66|0b3fe9c3] (1+0/5) Accurately ripped
10 [1392d49e|fd571b96] (1+1/5) Accurately ripped
11 [98d31924|b7516f72] (1+1/5) Accurately ripped
12 [d662be5a|f31dc019] (1+1/5) Accurately ripped
Offsetted by -2434:
01 [ed446f75] (1/5) Accurately ripped
02 [978ed7a3] (1/5) Accurately ripped
03 [6691dd62] (1/5) Accurately ripped
04 [0c890232] (1/5) Accurately ripped
05 [610459c2] (1/5) Accurately ripped
06 [3604b5eb] (1/5) Accurately ripped
07 [78d0ed2e] (1/5) Accurately ripped
08 [1dba88f3] (1/5) Accurately ripped
09 [fcd7fd72] (1/5) Accurately ripped
10 [d96775c0] (1/5) Accurately ripped
11 [64ed15c2] (1/5) Accurately ripped
12 [6a21546a] (1/5) Accurately ripped

Track Peak [ CRC32 ] [W/O NULL] [ LOG ]
– 99,9 [F96AEA43] [214026CF] CRC32
01 99,2 [1571A1B4] [EF612AB4]
02 99,2 [82FCAE90] [0EEF095D]
03 99,2 [053C1EC2] [57D21D5A]
04 99,2 [223470D2] [6A63CCDD]
05 99,2 [C7323CC8] [88DD5A6F]
06 99,2 [9F30B8BE] [5B93B139]
07 99,2 [2F7D88E3] [B9A7E043]
08 99,9 [630BD3F9] [A325932C]
09 99,2 [D38F07BD] [53B9B026]
10 99,2 [454FC1DA] [347B9FBE]
11 99,2 [0CDEAE72] [0CA1220B]
12 80,9 [A358BF98] [A0E0549E]

Mark May & The Agitators - Telephone Road Houston, TX (1997)


All thanks go to ЗУБ2007

>>> My Blog <<<

DOWNLOAD: