Subcategories
Tags
Language
Tags

Mark 'Oh - The Best Of Mark 'Oh: Never Stopped Livin' That Feeling (2001)

Posted By: popsakov
Mark 'Oh - The Best Of Mark 'Oh: Never Stopped Livin' That Feeling (2001)

Mark 'Oh - The Best Of Mark 'Oh: Never Stopped Livin' That Feeling (2001)
EAC Rip | FLAC (Img) + Cue + Log ~ 564 Mb | MP3 CBR320 ~ 177 Mb
Full Scans ~ 59 Mb | 01:13:30 | RAR 5% Recovery
Eurodance, Techno, Trance, Euro House | Orbit Records / Universal Music #108 623-2

Hugely positive and sometimes crushingly sentimental, Germany's Mark 'Oh (Marko Albrecht) is part of a long line of German musicians who threw down the mantle of rock amateurism in order to embrace his country's post-rave mainstream dance. After disbanding his first guitar outfit, Line Up, 'Oh began as a DJ in 1990 and worked his way up to production with the 1993 limited release of "Randy – Never Stop That Feeling," a cheery, helium-sampled single that found its way to the top of Germany's charts for half a year after its re-release. Subsequent singles furthered 'Oh's light Super Mario Brothers trance style and his three albums – 1995's Never Stop That Feeling, 1996's Magic Power, and 1999's Rebirth – showed an increase in guest appearances and unusual covers, such as reworkings of Visage's "Fade to Grey" and Nick Kamen's "I Promised Myself." A premature Best Of collection was released in 2001.

~ All Music

***************

Mark 'Oh - The Best Of Mark 'Oh: Never Stopped Livin' That Feeling (2001)

Track List:

01. Never Stop That Feeling 2001 (Video Cut) [0:03:34.60]
02. Love Song (Original Short Mix) [0:02:59.26]
03. Tears Don't Lie 2001 [0:03:52.37]
04. Droste Hoerst Du Mich (Original Short Version) [0:03:41.62]
05. I Can't Get No (Wahaha) (Original Short Version) [0:03:38.30]
06. Tell Me (Original Radio Edit) [0:04:07.07]
07. Fade To Grey (Original Radio Version) [0:03:59.38]
08. The Right Way (Original Radio Edit) [0:04:11.72]
09. The Team On Tour (Original Short Mix) [0:03:55.68]
10. The Sparrows And The Nightingales (Original Short Mix) [0:03:19.30]
11. Your Love (Original Radio Version) [0:03:43.07]
12. Rebirth (Original Short Mix) [0:03:16.43]
13. Waves (Original Radio Edit) [0:03:38.15]
14. Randy (Never Stop That Feeling) (Original Westbam RMX) [0:05:56.46]
15. Fade To Grey (Original Mark'Oh Remix) [0:05:34.41]
16. Ultimate (B-Seite Von Tears Don't Lie) [0:04:05.55]
17. Randy (Never Stop That Feeling) (Original Hardsequencer RMX) [0:06:16.51]
18. Tears Don't Lie (Original Short Mix) [0:03:38.35]

Exact Audio Copy V1.3 from 2. September 2016

EAC extraction logfile from 17. May 2017, 21:57

Mark 'Oh / The Best Of. Never Stopped Livin' That Feeling

Used drive : PLEXTOR DVDR PX-716A Adapter: 1 ID: 0

Read mode : Secure
Utilize accurate stream : Yes
Defeat audio cache : Yes
Make use of C2 pointers : No

Read offset correction : 30
Overread into Lead-In and Lead-Out : No
Fill up missing offset samples with silence : Yes
Delete leading and trailing silent blocks : No
Null samples used in CRC calculations : Yes
Used interface : Native Win32 interface for Win NT & 2000

Used output format : User Defined Encoder
Selected bitrate : 1024 kBit/s
Quality : High
Add ID3 tag : No
Command line compressor : C:\Program Files (x86)\Exact Audio Copy\FLAC\FLAC.EXE
Additional command line options : -6 -V -T "ARTIST=%artist%" -T "TITLE=%title%" -T "ALBUM=%albumtitle%" -T "DATE=%year%" -T "TRACKNUMBER=%tracknr%" -T "GENRE=%genre%" -T "COMMENT=%comment%" -T "BAND=%albuminterpret%" -T "ALBUMARTIST=%albuminterpret%" -T "COMPOSER=%composer%" %haslyrics%–tag-from-file=LYRICS="%lyricsfile%"%haslyrics% -T "DISCNUMBER=%cdnumber%" -T "TOTALDISCS=%totalcds%" -T "TOTALTRACKS=%numtracks%" %hascover%–picture="%coverfile%"%hascover% %source% -o %dest%


TOC of the extracted CD

Track | Start | Length | Start sector | End sector
––––––––––––––––––––––––––––-
1 | 0:00.00 | 3:34.60 | 0 | 16109
2 | 3:34.60 | 2:59.26 | 16110 | 29560
3 | 6:34.11 | 3:52.37 | 29561 | 46997
4 | 10:26.48 | 3:41.62 | 46998 | 63634
5 | 14:08.35 | 3:38.30 | 63635 | 80014
6 | 17:46.65 | 4:07.07 | 80015 | 98546
7 | 21:53.72 | 3:59.38 | 98547 | 116509
8 | 25:53.35 | 4:11.72 | 116510 | 135406
9 | 30:05.32 | 3:55.68 | 135407 | 153099
10 | 34:01.25 | 3:19.30 | 153100 | 168054
11 | 37:20.55 | 3:43.07 | 168055 | 184786
12 | 41:03.62 | 3:16.43 | 184787 | 199529
13 | 44:20.30 | 3:38.15 | 199530 | 215894
14 | 47:58.45 | 5:56.46 | 215895 | 242640
15 | 53:55.16 | 5:34.41 | 242641 | 267731
16 | 59:29.57 | 4:05.55 | 267732 | 286161
17 | 63:35.37 | 6:16.51 | 286162 | 314412
18 | 69:52.13 | 3:38.35 | 314413 | 330797


Range status and errors

Selected range

Filename C:\mm\Mark 'Oh\2001 - The Best Of. Never Stopped Livin' that Feeling [108 623-2]\Mark 'Oh - The Best Of. Never Stopped Livin' That Feeling.wav

Peak level 100.0 %
Extraction speed 14.0 X
Range quality 99.9 %
Test CRC 1331A3D7
Copy CRC 1331A3D7
Copy OK

No errors occurred


AccurateRip summary

Track 1 accurately ripped (confidence 9) [580A2688] (AR v2)
Track 2 accurately ripped (confidence 9) [5756E2D6] (AR v2)
Track 3 accurately ripped (confidence 9) [280B1DAB] (AR v2)
Track 4 accurately ripped (confidence 9) [693BE9D8] (AR v2)
Track 5 accurately ripped (confidence 9) [E91AD630] (AR v2)
Track 6 accurately ripped (confidence 9) [3FBBDDF0] (AR v2)
Track 7 accurately ripped (confidence 7) [415CE8D0] (AR v2)
Track 8 accurately ripped (confidence 8) [91D7B26D] (AR v2)
Track 9 accurately ripped (confidence 9) [2C8D0C2B] (AR v2)
Track 10 accurately ripped (confidence 9) [5D3F3F8F] (AR v2)
Track 11 accurately ripped (confidence 9) [EC91F00C] (AR v2)
Track 12 accurately ripped (confidence 8) [CD29E141] (AR v2)
Track 13 accurately ripped (confidence 8) [28863028] (AR v2)
Track 14 accurately ripped (confidence 9) [F0B8F184] (AR v2)
Track 15 accurately ripped (confidence 9) [81AB9EBB] (AR v2)
Track 16 accurately ripped (confidence 9) [6AB6E901] (AR v2)
Track 17 accurately ripped (confidence 8) [8F66D12E] (AR v2)
Track 18 accurately ripped (confidence 8) [B4910E1C] (AR v2)

All tracks accurately ripped

End of status report

–– CUETools DB Plugin V2.1.6

[CTDB TOCID: iyAXB3Saib2TgPIHGoDUxx6MiyI-] found
Submit result: iyAXB3Saib2TgPIHGoDUxx6MiyI- has been confirmed
Track | CTDB Status
1 | (14/14) Accurately ripped
2 | (14/14) Accurately ripped
3 | (14/14) Accurately ripped
4 | (13/14) Accurately ripped
5 | (14/14) Accurately ripped
6 | (14/14) Accurately ripped
7 | (12/14) Accurately ripped, or (2/14) differs in 179 samples @02:37:12,02:37:35,02:37:43,02:37:73,02:38:43,02:38:58,02:39:43,02:40:73-02:40:74,02:41:59,02:42:43,02:42:59,02:42:73-02:42:74,02:43:14,02:43:29,02:43:44,02:43:59,02:44:74,02:45:21-02:45:22,02:45:36,02:45:67,02:46:22,02:46:37,02:46:44-02:46:45,02:46:52,02:47:07,02:47:22,02:47:30,02:47:52-02:47:53,02:48:38,02:48:52,03:03:74,03:05:00,03:05:45,03:06:00,03:30:49,03:35:23,03:44:02,03:49:70
8 | (12/14) Accurately ripped, or (2/14) differs in 12 samples @00:05:66,00:07:08,00:28:72
9 | (14/14) Accurately ripped
10 | (14/14) Accurately ripped
11 | (14/14) Accurately ripped
12 | (14/14) Accurately ripped
13 | (14/14) Accurately ripped
14 | (14/14) Accurately ripped
15 | (14/14) Accurately ripped
16 | (14/14) Accurately ripped
17 | (14/14) Accurately ripped
18 | (14/14) Accurately ripped

[CUETools log; Date: 07.04.2021 22:34:27; Version: 2.1.6]
[CTDB TOCID: iyAXB3Saib2TgPIHGoDUxx6MiyI-] found.
Track | CTDB Status
1 | (29/29) Accurately ripped
2 | (29/29) Accurately ripped
3 | (29/29) Accurately ripped
4 | (28/29) Accurately ripped
5 | (29/29) Accurately ripped
6 | (29/29) Accurately ripped
7 | (27/29) Accurately ripped
8 | (27/29) Accurately ripped
9 | (28/29) Accurately ripped
10 | (29/29) Accurately ripped
11 | (29/29) Accurately ripped
12 | (29/29) Accurately ripped
13 | (29/29) Accurately ripped
14 | (29/29) Accurately ripped
15 | (29/29) Accurately ripped
16 | (27/29) Accurately ripped
17 | (29/29) Accurately ripped
18 | (29/29) Accurately ripped
[AccurateRip ID: 002d0308-0260bb77-fd113a12] found.
Track [ CRC | V2 ] Status
01 [aaa3e4f7|580a2688] (04+12/16) Accurately ripped
02 [ad4752f5|5756e2d6] (04+12/16) Accurately ripped
03 [be83f82a|280b1dab] (04+12/16) Accurately ripped
04 [cde82541|693be9d8] (04+12/16) Accurately ripped
05 [fd3f65a4|e91ad630] (04+12/16) Accurately ripped
06 [dc5ef56a|3fbbddf0] (04+12/16) Accurately ripped
07 [21731d35|415ce8d0] (04+10/14) Accurately ripped
08 [a8afbf00|91d7b26d] (04+11/15) Accurately ripped
09 [c2673d62|2c8d0c2b] (04+12/16) Accurately ripped
10 [a6ec5176|5d3f3f8f] (04+12/16) Accurately ripped
11 [1e45186c|ec91f00c] (04+12/16) Accurately ripped
12 [2a92c8b1|cd29e141] (04+11/15) Accurately ripped
13 [8a9cc20e|28863028] (04+11/15) Accurately ripped
14 [32199c1f|f0b8f184] (04+12/16) Accurately ripped
15 [6a837a41|81ab9ebb] (04+12/16) Accurately ripped
16 [d5c8ea1c|6ab6e901] (04+12/16) Accurately ripped
17 [206c3dba|8f66d12e] (04+11/15) Accurately ripped
18 [2a0d0a98|b4910e1c] (04+11/15) Accurately ripped

Track Peak [ CRC32 ] [W/O NULL] [ LOG ]
– 100,0 [1331A3D7] [02441575] CRC32
01 99,1 [8844B28B] [F208B6C6]
02 99,9 [8F944187] [4EF37D19]
03 96,7 [2A765229] [7F3818D3]
04 98,4 [9DE7D562] [23FC59C2]
05 94,6 [41014ED9] [0FE35EA3]
06 98,4 [E9A99E12] [180282C0]
07 99,7 [089A4E7D] [B442CE2B]
08 94,6 [84950391] [409347AB]
09 99,7 [7890D82C] [64716F79]
10 89,1 [C5EE1414] [2D899575]
11 97,9 [B837A492] [FDD7067B]
12 97,0 [98DBDDE4] [337E18FF]
13 98,2 [4666A7A5] [560DB117]
14 98,4 [ED314A44] [312861E9]
15 99,7 [9F083288] [D2431C84]
16 98,4 [17871793] [6FB79ECF]
17 100,0 [CC96CE8F] [E8BE5D3D]
18 98,4 [5BA7658D] [D3DD9381]

Mark 'Oh - The Best Of Mark 'Oh: Never Stopped Livin' That Feeling (2001)


All thanks go to sergych

>>> My Blog <<<

DOWNLOAD: