Subcategories

Martha Reeves & The Vandellas - The Definitive Collection (2008) [Repost]

Posted By: Designol
Martha Reeves & The Vandellas - The Definitive Collection (2008) [Repost]

Martha Reeves & The Vandellas - The Definitive Collection (2008)
XLD | FLAC | Tracks (Cue&Log) ~ 390 Mb | Mp3 (CBR320) ~ 160 Mb | Scans included
Soul, Pop-Soul, Doo-Wop, R&B | Label: Motown/Universal | # 006025 17773325 | 00:51:30

The Definitive Collection does an effective job of chronicling the majority of Martha & the Vandellas biggest hits from their first chart entry "Come and Get These Memories" in 1963 to their final one, "Honey Chile," in 1967. All of the familiar radio tracks such as "Heatwave," "Dancing in the Street," "Nowhere to Run," and "Jimmy Mack" are featured alongside several singles of equal quality that didn't get as much radio play upon initial release. While there are other, more exhaustive compilations, such as the double-disc set Live Wire! The Singles 1962-1972, this is the best concise overview of Martha & the Vandellas' career, containing the most hits on a single disc.

Review by Al Campbell, Allmusic.com

Martha Reeves & The Vandellas - The Definitive Collection (2008) [Repost]



Tracklist:

01. Come And Get These Memories (2:29)
02. (Love Is Like A) Heat Wave (3:46)
03. Nowhere To Run (2:58)
04. In My Lonely Room (2:26)
05. Dancing In The Street (2:39)
06. Quicksand (2:44)
07. Love (Makes Me Do Foolish Things) (2:53)
08. Live Wire (2:37)
09. I'm Ready For Love (2:57)
10. A Love Like Yours (Don't Come Knocking Every Day) (2:33)
11. Wild One (2:45)
12. Third Finger, Left Hand (3:07)
13. Honey Chile (2:59)
14. You've Been In Love Too Long (2:58)
15. Jimmy Mack (3:12)
16. Love Bug Leave My Heart Alone (2:11)
17. Bless You (3:05)
18. My Baby Loves Me (3:11)


X Lossless Decoder version 20100123 (115.4)

XLD extraction logfile from 2010-01-25 14:18:17 +0100

Martha Reeves & The Vandellas / The Definitive Collection

Used drive : MATSHITA DVD-RAM UJ-85JA (revision 1.02)

Use cdparanoia mode : YES (CDParanoia III 10.2 engine)
Disable audio cache : OK for the drive with cache less than 2750KB
Make use of C2 pointers : NO
Read offset correction : 102
Max retry count : 100

TOC of the extracted CD
Track | Start | Length | Start sector | End sector
––––––––––––––––––––––––––––-
1 | 00:00:00 | 02:28:67 | 0 | 11166
2 | 02:28:67 | 03:45:73 | 11167 | 28114
3 | 06:14:65 | 02:58:30 | 28115 | 41494
4 | 09:13:20 | 02:25:61 | 41495 | 52430
5 | 11:39:06 | 02:39:37 | 52431 | 64392
6 | 14:18:43 | 02:44:04 | 64393 | 76696
7 | 17:02:47 | 02:52:67 | 76697 | 89663
8 | 19:55:39 | 02:36:72 | 89664 | 101435
9 | 22:32:36 | 02:56:39 | 101436 | 114674
10 | 25:29:00 | 02:33:15 | 114675 | 126164
11 | 28:02:15 | 02:45:16 | 126165 | 138555
12 | 30:47:31 | 03:06:40 | 138556 | 152545
13 | 33:53:71 | 02:59:25 | 152546 | 165995
14 | 36:53:21 | 02:57:51 | 165996 | 179321
15 | 39:50:72 | 03:12:19 | 179322 | 193740
16 | 43:03:16 | 02:10:52 | 193741 | 203542
17 | 45:13:68 | 03:05:22 | 203543 | 217439
18 | 48:19:15 | 03:10:66 | 217440 | 231755


Track 01
Filename : /Users/marc/Desktop/Martha Reeves & the Vandellas - The Definitive Collection (2008) [FLAC]/01 - Come And Get These Memories.flac

Pre-gap length : 00:02:00

CRC32 hash (test run) : 526E6940
CRC32 hash : 526E6940
CRC32 hash (skip zero) : 159AD1D2
AccurateRip signature : D8F783C5
->Accurately ripped! (confidence 6)
Statistics
Read error : 0
Skipped (treated as error) : 0
Edge jitter error (maybe fixed) : 0
Atom jitter error (maybe fixed) : 0
Drift error (maybe fixed) : 0
Dropped bytes error (maybe fixed) : 0
Duplicated bytes error (maybe fixed) : 0
Inconsistency in error sectors : 0

Track 02
Filename : /Users/marc/Desktop/Martha Reeves & the Vandellas - The Definitive Collection (2008) [FLAC]/02 - (Love Is Like A) Heat Wave.flac

Pre-gap length : 00:00:37

CRC32 hash (test run) : 9D5919B0
CRC32 hash : 9D5919B0
CRC32 hash (skip zero) : 71B4990F
AccurateRip signature : 6545C7D3
->Accurately ripped! (confidence 6)
Statistics
Read error : 0
Skipped (treated as error) : 0
Edge jitter error (maybe fixed) : 0
Atom jitter error (maybe fixed) : 0
Drift error (maybe fixed) : 0
Dropped bytes error (maybe fixed) : 0
Duplicated bytes error (maybe fixed) : 0
Inconsistency in error sectors : 0

Track 03
Filename : /Users/marc/Desktop/Martha Reeves & the Vandellas - The Definitive Collection (2008) [FLAC]/03 - Nowhere To Run.flac

Pre-gap length : 00:00:37

CRC32 hash (test run) : 94B758EE
CRC32 hash : 94B758EE
CRC32 hash (skip zero) : C2418D90
AccurateRip signature : 2AFA9C9E
->Accurately ripped! (confidence 6)
Statistics
Read error : 0
Skipped (treated as error) : 0
Edge jitter error (maybe fixed) : 0
Atom jitter error (maybe fixed) : 0
Drift error (maybe fixed) : 0
Dropped bytes error (maybe fixed) : 0
Duplicated bytes error (maybe fixed) : 0
Inconsistency in error sectors : 0

Track 04
Filename : /Users/marc/Desktop/Martha Reeves & the Vandellas - The Definitive Collection (2008) [FLAC]/04 - In My Lonely Room.flac

Pre-gap length : 00:00:37

CRC32 hash (test run) : 81DD60B2
CRC32 hash : 81DD60B2
CRC32 hash (skip zero) : 3260CF06
AccurateRip signature : AD599472
->Accurately ripped! (confidence 6)
Statistics
Read error : 0
Skipped (treated as error) : 0
Edge jitter error (maybe fixed) : 0
Atom jitter error (maybe fixed) : 0
Drift error (maybe fixed) : 0
Dropped bytes error (maybe fixed) : 0
Duplicated bytes error (maybe fixed) : 0
Inconsistency in error sectors : 0

Track 05
Filename : /Users/marc/Desktop/Martha Reeves & the Vandellas - The Definitive Collection (2008) [FLAC]/05 - Dancing In The Street.flac

Pre-gap length : 00:00:37

CRC32 hash (test run) : 7453C4C2
CRC32 hash : 7453C4C2
CRC32 hash (skip zero) : 3B56FF5B
AccurateRip signature : DB44D89D
->Accurately ripped! (confidence 6)
Statistics
Read error : 0
Skipped (treated as error) : 0
Edge jitter error (maybe fixed) : 0
Atom jitter error (maybe fixed) : 0
Drift error (maybe fixed) : 0
Dropped bytes error (maybe fixed) : 0
Duplicated bytes error (maybe fixed) : 0
Inconsistency in error sectors : 0

Track 06
Filename : /Users/marc/Desktop/Martha Reeves & the Vandellas - The Definitive Collection (2008) [FLAC]/06 - Quicksand.flac

Pre-gap length : 00:00:37

CRC32 hash (test run) : 07324F84
CRC32 hash : 07324F84
CRC32 hash (skip zero) : BCEB57BB
AccurateRip signature : 591DA405
->Accurately ripped! (confidence 6)
Statistics
Read error : 0
Skipped (treated as error) : 0
Edge jitter error (maybe fixed) : 0
Atom jitter error (maybe fixed) : 0
Drift error (maybe fixed) : 0
Dropped bytes error (maybe fixed) : 0
Duplicated bytes error (maybe fixed) : 0
Inconsistency in error sectors : 0

Track 07
Filename : /Users/marc/Desktop/Martha Reeves & the Vandellas - The Definitive Collection (2008) [FLAC]/07 - Love (Makes Me Do Foolish Things).flac

Pre-gap length : 00:00:37

CRC32 hash (test run) : 9B0DAB1A
CRC32 hash : 9B0DAB1A
CRC32 hash (skip zero) : 8DA4615A
AccurateRip signature : 2413C58C
->Accurately ripped! (confidence 6)
Statistics
Read error : 0
Skipped (treated as error) : 0
Edge jitter error (maybe fixed) : 0
Atom jitter error (maybe fixed) : 0
Drift error (maybe fixed) : 0
Dropped bytes error (maybe fixed) : 0
Duplicated bytes error (maybe fixed) : 0
Inconsistency in error sectors : 0

Track 08
Filename : /Users/marc/Desktop/Martha Reeves & the Vandellas - The Definitive Collection (2008) [FLAC]/08 - Live Wire.flac

Pre-gap length : 00:00:37

CRC32 hash (test run) : 97C499EC
CRC32 hash : 97C499EC
CRC32 hash (skip zero) : 491087A0
AccurateRip signature : 1C09BD1D
->Accurately ripped! (confidence 6)
Statistics
Read error : 0
Skipped (treated as error) : 0
Edge jitter error (maybe fixed) : 0
Atom jitter error (maybe fixed) : 0
Drift error (maybe fixed) : 0
Dropped bytes error (maybe fixed) : 0
Duplicated bytes error (maybe fixed) : 0
Inconsistency in error sectors : 0

Track 09
Filename : /Users/marc/Desktop/Martha Reeves & the Vandellas - The Definitive Collection (2008) [FLAC]/09 - I'm Ready For Love.flac

Pre-gap length : 00:00:37

CRC32 hash (test run) : DA5DD7C1
CRC32 hash : DA5DD7C1
CRC32 hash (skip zero) : 21FAEBBF
AccurateRip signature : C17DC9E5
->Accurately ripped! (confidence 6)
Statistics
Read error : 0
Skipped (treated as error) : 0
Edge jitter error (maybe fixed) : 0
Atom jitter error (maybe fixed) : 0
Drift error (maybe fixed) : 0
Dropped bytes error (maybe fixed) : 0
Duplicated bytes error (maybe fixed) : 0
Inconsistency in error sectors : 0

Track 10
Filename : /Users/marc/Desktop/Martha Reeves & the Vandellas - The Definitive Collection (2008) [FLAC]/10 - A Love Like Yours (Don't Come Knocking Every Day).flac

Pre-gap length : 00:00:37

CRC32 hash (test run) : 5933F441
CRC32 hash : 5933F441
CRC32 hash (skip zero) : 13F55F8D
AccurateRip signature : 06AC4A48
->Accurately ripped! (confidence 6)
Statistics
Read error : 0
Skipped (treated as error) : 0
Edge jitter error (maybe fixed) : 0
Atom jitter error (maybe fixed) : 0
Drift error (maybe fixed) : 0
Dropped bytes error (maybe fixed) : 0
Duplicated bytes error (maybe fixed) : 0
Inconsistency in error sectors : 0

Track 11
Filename : /Users/marc/Desktop/Martha Reeves & the Vandellas - The Definitive Collection (2008) [FLAC]/11 - Wild One.flac

Pre-gap length : 00:00:37

CRC32 hash (test run) : DCFFDCD3
CRC32 hash : DCFFDCD3
CRC32 hash (skip zero) : 53E1D0FE
AccurateRip signature : AD700B75
->Accurately ripped! (confidence 6)
Statistics
Read error : 0
Skipped (treated as error) : 0
Edge jitter error (maybe fixed) : 0
Atom jitter error (maybe fixed) : 0
Drift error (maybe fixed) : 0
Dropped bytes error (maybe fixed) : 0
Duplicated bytes error (maybe fixed) : 0
Inconsistency in error sectors : 0

Track 12
Filename : /Users/marc/Desktop/Martha Reeves & the Vandellas - The Definitive Collection (2008) [FLAC]/12 - Third Finger, Left Hand.flac

Pre-gap length : 00:00:37

CRC32 hash (test run) : 6DA243D2
CRC32 hash : 6DA243D2
CRC32 hash (skip zero) : 73B2833B
AccurateRip signature : ABA88B86
->Accurately ripped! (confidence 6)
Statistics
Read error : 0
Skipped (treated as error) : 0
Edge jitter error (maybe fixed) : 0
Atom jitter error (maybe fixed) : 0
Drift error (maybe fixed) : 0
Dropped bytes error (maybe fixed) : 0
Duplicated bytes error (maybe fixed) : 0
Inconsistency in error sectors : 0

Track 13
Filename : /Users/marc/Desktop/Martha Reeves & the Vandellas - The Definitive Collection (2008) [FLAC]/13 - Honey Chile.flac

Pre-gap length : 00:00:37

CRC32 hash (test run) : D0E7A610
CRC32 hash : D0E7A610
CRC32 hash (skip zero) : 00D285FC
AccurateRip signature : 7C8221D2
->Accurately ripped! (confidence 6)
Statistics
Read error : 0
Skipped (treated as error) : 0
Edge jitter error (maybe fixed) : 0
Atom jitter error (maybe fixed) : 0
Drift error (maybe fixed) : 0
Dropped bytes error (maybe fixed) : 0
Duplicated bytes error (maybe fixed) : 0
Inconsistency in error sectors : 0

Track 14
Filename : /Users/marc/Desktop/Martha Reeves & the Vandellas - The Definitive Collection (2008) [FLAC]/14 - You've Been In Love Too Long.flac

Pre-gap length : 00:00:37

CRC32 hash (test run) : E38698A4
CRC32 hash : E38698A4
CRC32 hash (skip zero) : F630D791
AccurateRip signature : C2F08EC5
->Accurately ripped! (confidence 6)
Statistics
Read error : 0
Skipped (treated as error) : 0
Edge jitter error (maybe fixed) : 0
Atom jitter error (maybe fixed) : 0
Drift error (maybe fixed) : 0
Dropped bytes error (maybe fixed) : 0
Duplicated bytes error (maybe fixed) : 0
Inconsistency in error sectors : 0

Track 15
Filename : /Users/marc/Desktop/Martha Reeves & the Vandellas - The Definitive Collection (2008) [FLAC]/15 - Jimmy Mack.flac

Pre-gap length : 00:00:37

CRC32 hash (test run) : 99C20F2A
CRC32 hash : 99C20F2A
CRC32 hash (skip zero) : 09A3D365
AccurateRip signature : 02FBDD38
->Accurately ripped! (confidence 6)
Statistics
Read error : 0
Skipped (treated as error) : 0
Edge jitter error (maybe fixed) : 0
Atom jitter error (maybe fixed) : 0
Drift error (maybe fixed) : 0
Dropped bytes error (maybe fixed) : 0
Duplicated bytes error (maybe fixed) : 0
Inconsistency in error sectors : 0

Track 16
Filename : /Users/marc/Desktop/Martha Reeves & the Vandellas - The Definitive Collection (2008) [FLAC]/16 - Love Bug Leave My Heart Alone.flac

Pre-gap length : 00:00:37

CRC32 hash (test run) : C8884A9D
CRC32 hash : C8884A9D
CRC32 hash (skip zero) : 23E7420C
AccurateRip signature : A2C10B14
->Accurately ripped! (confidence 6)
Statistics
Read error : 0
Skipped (treated as error) : 0
Edge jitter error (maybe fixed) : 0
Atom jitter error (maybe fixed) : 0
Drift error (maybe fixed) : 0
Dropped bytes error (maybe fixed) : 0
Duplicated bytes error (maybe fixed) : 0
Inconsistency in error sectors : 0

Track 17
Filename : /Users/marc/Desktop/Martha Reeves & the Vandellas - The Definitive Collection (2008) [FLAC]/17 - Bless You.flac

Pre-gap length : 00:00:37

CRC32 hash (test run) : 2AE4C4A9
CRC32 hash : 2AE4C4A9
CRC32 hash (skip zero) : 46DC0561
AccurateRip signature : 242F1026
->Accurately ripped! (confidence 6)
Statistics
Read error : 0
Skipped (treated as error) : 0
Edge jitter error (maybe fixed) : 0
Atom jitter error (maybe fixed) : 0
Drift error (maybe fixed) : 0
Dropped bytes error (maybe fixed) : 0
Duplicated bytes error (maybe fixed) : 0
Inconsistency in error sectors : 0

Track 18
Filename : /Users/marc/Desktop/Martha Reeves & the Vandellas - The Definitive Collection (2008) [FLAC]/18 - My Baby Loves Me.flac

Pre-gap length : 00:00:37

CRC32 hash (test run) : AD0E434A
CRC32 hash : AD0E434A
CRC32 hash (skip zero) : 9759119D
AccurateRip signature : 5AFA4DA5
->Accurately ripped! (confidence 6)
Statistics
Read error : 0
Skipped (treated as error) : 0
Edge jitter error (maybe fixed) : 0
Atom jitter error (maybe fixed) : 0
Drift error (maybe fixed) : 0
Dropped bytes error (maybe fixed) : 0
Duplicated bytes error (maybe fixed) : 0
Inconsistency in error sectors : 0

No errors occurred

End of status report

[CUETools log; Date: 19.12.2017 21:52:35; Version: 2.1.4]
[CTDB TOCID: VEY6rBd6x3NQH0m4TGYVuHoQhF0-] found.
Track | CTDB Status
1 | (35/35) Accurately ripped
2 | (35/35) Accurately ripped
3 | (35/35) Accurately ripped
4 | (35/35) Accurately ripped
5 | (35/35) Accurately ripped
6 | (35/35) Accurately ripped
7 | (35/35) Accurately ripped
8 | (35/35) Accurately ripped
9 | (35/35) Accurately ripped
10 | (35/35) Accurately ripped
11 | (35/35) Accurately ripped
12 | (35/35) Accurately ripped
13 | (35/35) Accurately ripped
14 | (35/35) Accurately ripped
15 | (35/35) Accurately ripped
16 | (35/35) Accurately ripped
17 | (33/35) Accurately ripped
18 | (35/35) Accurately ripped
[AccurateRip ID: 00216752-01bcf158-e90c1212] found.
Track [ CRC | V2 ] Status
01 [d8f783c5|438d8945] (13+18/34) Accurately ripped
02 [6545c7d3|1909df88] (14+18/35) Accurately ripped
03 [2afa9c9e|e956462e] (14+18/35) Accurately ripped
04 [ad599472|eab84fbb] (13+18/34) Accurately ripped
05 [db44d89d|244eac83] (15+18/36) Accurately ripped
06 [591da405|faa2df28] (14+18/35) Accurately ripped
07 [2413c58c|7d940752] (13+18/34) Accurately ripped
08 [1c09bd1d|97a34cdf] (14+18/35) Accurately ripped
09 [c17dc9e5|5f75f595] (13+18/34) Accurately ripped
10 [06ac4a48|263a9841] (13+18/34) Accurately ripped
11 [ad700b75|b11b0f51] (13+18/34) Accurately ripped
12 [aba88b86|ac8b8d79] (13+18/34) Accurately ripped
13 [7c8221d2|d3f55223] (13+18/34) Accurately ripped
14 [c2f08ec5|1626a764] (13+18/34) Accurately ripped
15 [02fbdd38|72281061] (14+18/35) Accurately ripped
16 [a2c10b14|b9fd5af1] (13+18/34) Accurately ripped
17 [242f1026|719a59df] (13+18/34) Accurately ripped
18 [5afa4da5|194c0cad] (13+18/34) Accurately ripped
Offsetted by -12:
01 [4343c3ad] (00/34) No match (V2 was not tested)
02 [6506fbbf] (00/35) No match (V2 was not tested)
03 [1468ccba] (00/35) No match (V2 was not tested)
04 [fea9255e] (00/34) No match (V2 was not tested)
05 [136af691] (00/36) No match (V2 was not tested)
06 [71281ff9] (00/35) No match (V2 was not tested)
07 [132c1508] (00/34) No match (V2 was not tested)
08 [4197cf8d] (00/35) No match (V2 was not tested)
09 [c5fc720d] (00/34) No match (V2 was not tested)
10 [db2599cc] (00/34) No match (V2 was not tested)
11 [1f1e2ac9] (00/34) No match (V2 was not tested)
12 [afd1357a] (00/34) No match (V2 was not tested)
13 [34dee4ee] (00/34) No match (V2 was not tested)
14 [2b7a1529] (00/34) No match (V2 was not tested)
15 [56943988] (00/35) No match (V2 was not tested)
16 [d40d7010] (00/34) No match (V2 was not tested)
17 [c1822dfe] (00/34) No match (V2 was not tested)
18 [fee5a76d] (00/34) No match (V2 was not tested)

Track Peak [ CRC32 ] [W/O NULL]
– 100,0 [2BF3A76D] [CB5417C3]
01 99,1 [526E6940] [159AD1D2]
02 100,0 [9D5919B0] [71B4990F]
03 97,8 [94B758EE] [C2418D90]
04 100,0 [81DD60B2] [3260CF06]
05 90,5 [7453C4C2] [3B56FF5B]
06 88,9 [07324F84] [BCEB57BB]
07 100,0 [9B0DAB1A] [8DA4615A]
08 97,2 [97C499EC] [491087A0]
09 99,9 [DA5DD7C1] [21FAEBBF]
10 84,3 [5933F441] [13F55F8D]
11 98,4 [DCFFDCD3] [53E1D0FE]
12 97,0 [6DA243D2] [73B2833B]
13 98,9 [D0E7A610] [00D285FC]
14 100,0 [E38698A4] [F630D791]
15 83,3 [99C20F2A] [09A3D365]
16 93,1 [C8884A9D] [23E7420C]
17 100,0 [2AE4C4A9] [46DC0561]
18 99,9 [AD0E434A] [9759119D]

foobar2000 1.2 / Dynamic Range Meter 1.1.1
log date: 2017-12-19 21:54:35

––––––––––––––––––––––––––––––––––––––––
Analyzed: Martha Reeves & The Vandellas / The Definitive Collection
––––––––––––––––––––––––––––––––––––––––

DR Peak RMS Duration Track
––––––––––––––––––––––––––––––––––––––––
DR8 -0.07 dB -9.01 dB 2:29 01-Come And Get These Memories
DR8 0.00 dB -8.78 dB 3:46 02-(Love Is Like A) Heat Wave
DR8 -0.19 dB -9.09 dB 2:58 03-Nowhere To Run
DR8 0.00 dB -9.24 dB 2:26 04-In My Lonely Room
DR6 -0.86 dB -8.45 dB 2:39 05-Dancing In The Street
DR8 -1.02 dB -10.16 dB 2:44 06-Quicksand
DR8 0.00 dB -9.55 dB 2:53 07-Love (Makes Me Do Foolish Things)
DR6 -0.25 dB -8.44 dB 2:37 08-Live Wire
DR9 0.00 dB -10.48 dB 2:57 09-I'm Ready For Love
DR6 -1.48 dB -8.99 dB 2:33 10-A Love Like Yours (Don't Come Knocking Every Day)
DR6 -0.13 dB -7.32 dB 2:45 11-Wild One
DR7 -0.26 dB -8.37 dB 3:07 12-Third Finger, Left Hand
DR9 -0.09 dB -10.57 dB 2:59 13-Honey Chile
DR7 0.00 dB -8.85 dB 2:58 14-You've Been In Love Too Long
DR6 -1.58 dB -8.87 dB 3:12 15-Jimmy Mack
DR7 -0.62 dB -10.71 dB 2:11 16-Love Bug Leave My Heart Alone
DR8 0.00 dB -9.60 dB 3:05 17-Bless You
DR7 -0.01 dB -8.55 dB 3:11 18-My Baby Loves Me
––––––––––––––––––––––––––––––––––––––––

Number of tracks: 18
Official DR value: DR7

Samplerate: 44100 Hz
Channels: 2
Bits per sample: 16
Bitrate: 860 kbps
Codec: FLAC
================================================================================

Martha Reeves & The Vandellas - The Definitive Collection (2008) [Repost]

Martha Reeves & The Vandellas - The Definitive Collection (2008) [Repost]

All thanks to original releaser

More interesting music in My Blog