Tags
Language
Tags

Marvin Gaye - Lost and Found: Love Starved Heart (1994) [1999, Expanded Edition]

Posted By: BlondStyle
Marvin Gaye - Lost and Found: Love Starved Heart (1994) [1999, Expanded Edition]

Marvin Gaye - Lost and Found: Love Starved Heart (1994) [1999, Expanded Edition]
R&B, Pop/Rock, Soul/Funk | EAC Rip | FLAC, Img+CUE+LOG+Scans (JPEG) | 73:04 Min | 291,50 Mb
Label: Motown Record Company (USA) | Cat.# 153 868-2 | Released: 1999-09-28 (1994)
Marvin Gaye - Lost and Found: Love Starved Heart (1994) [1999, Expanded Edition]

Love Starved Heart: Rare and Unreleased is a compilation album by Marvin Gaye. Released in 1994 on Motown Records, the collection features some rarities from the soul singer's catalog during his formative years in the label between his breakthrough year as an R&B star in 1963 to around the time of his late-1960s hits including "I Heard It through the Grapevine". Covering material he worked on with luminaries such as Holland-Dozier-Holland, Smokey Robinson and William "Mickey" Stevenson, the disc showcases Gaye's growth as a vocalist. In 1999, an expanded version was released including bonus tracks and a rare interview.
~Wikipedia
Love Starved Heart assembles 25 unreleased tracks recorded by Marvin Gaye between 1963 and 1971, Motown's golden era. That it took three decades for these songs to see the light of day speaks far more to the intensity of the label's assembly line production ethic than to the quality of the material itself at their most pedestrian, these are fine performances simply lost in the shuffle, but at moments like "It's a Desperate Situation," "When I Feel the Need," and "This Love Starved Heart of Mine (It's Killing Me)," Gaye achieves the same peaks of his hits of the era, crafting performances of such sublime beauty and haunting poignancy that their failure to reach the masses until now is nothing short of remarkable. Still, where classics like "I Heard It Through the Grapevine" and "Ain't That Peculiar" tend to suffer from years of oldies radio wear and tear, Love Starved Heart sounds positively refreshing in their own way, these long-lost songs reaffirm the timelessness of Marvin Gaye's brilliance even more than the familiar hits on which his reputation rests.
~Review by Jason Ankeny
This collection of rare and previously unreleased Gaye performances originally appeared in 1994; augmented by several bonus tracks, it's now part of Motown's Lost and Found series. While the selection of album cuts and B-sides on the earlier Seek and You Shall Find is touched with genius, Love Starved Heart's effectiveness is frequently hampered by lackluster material. This isn't a bad disc; the star does his best with the likes of "You're a Son of a Gun." Gaye aficionados who don't already own the disc will appreciate having it back in print, and even casual fans should hear "Dark Side of the World," a neglected gem from the "I Heard It Through the Grapevine" era. But for the most part, this isn't essential Marvin.
~Review by Rickey Wright

Marvin Gaye - Lost and Found: Love Starved Heart (1994) [1999, Expanded Edition]


Release of this album: 1994 [CD Motown, Cat.# 31453-0319-2, USA]
Release of this CD: 1999, September, 28 [CD Motown (USA), Cat.# 153 868-2 / UPC: 601215386820]
℗© Motown Record Company, L.P., a Universal Music Company
Made in the E.U.

Notes: The selections on this compilation were transferred from the original full-track mono masters, recorded and mixed at Motown's legendary Hitsville Studios in Detroit, with the following exceptions: Basic tracks for "When I Feel The Need" and "This Love Starved Heart Of Mine" were recorded in Los Angeles. | Individual overdubs for some of the other tunes were recorded at "Studio B" - Golden World Studios in Detroit, less than five minutes from Hitsville. | "For Both Of Us I'll Be Concerned", "Darling You're Wonderful" and "Sad Souvenirs" were mixed specifically for this collection from the eight-track masters, as no original mixes exist. | "Dark Side Of The World", "I'm In Love With You", "Baby I'm Glad That…" and "Loving And Affection" were originally released in overdubbed, remixed form on the album Motown Remembers Marvin Gaye: Never Before Released Masters (Tamla 6172), 1986. This collection features the previously unreleased original Detroit/Hitsville mixes.

Credits:

Art Direction [Motown Lost & Found Art Direction] – Vartan
Artwork By, Design – Rebellious Design
Edited By [Digitally Edited] – Suha Gur (tracks: 17 to 26)
Executive Producer – Candace Bond (tracks: 1 to 16)
Liner Notes [Additional Notes] – Harry Weinger (tracks: 17 to 26)
Liner Notes [Essay] – David Ritz (tracks: 1 to 16)
Mastered By – Joe Gastwirt (tracks: 1 to 16)
Mastered By [Assistance] – Ramón Bretón (tracks: 1 to 16)
Mastered By [Digitally Mastered] – Suha Gur (tracks: 17 to 26)
Other [Motown Archives Director] – Georgia Ward (tracks: 1 to 16)
Producer – Amy Herot (tracks: 1 to 16), Harry Weinger (tracks: 17 to 26)
Production Manager [Production Coordinator] – Margaret Goldfarb


Tracklist:

Original 1994 Compilation

01. It's a Desperate Situation (03:08)
02. I Found Something (02:23)
03. When I Feel the Need (03:14)
04. This Love Starved Heart of Mine (It's Killing Me) (02:42)
05. You'se a Son of a Gun (02:30)
06. For Us Both I'll Be Concerned (02:40)
07. Darling You're Wonderful (02:13)
08. Sad Souvenirs (02:41)
09. I Can't Help It (I Love You) (03:25)
10. It's a Lonely World without Your Love (02:20)
11. Say When (02:39)
12. Lucky Lucky Me (02:51)
13. Get Away Heartbreak (Keep On Moving) (03:25)
14. Court of the Common Plea (02:58)
15. You Make Me Do Things (I Don't Want to Do) (03:16)
16. Hope I Don't Get My Heart Broke (03:37)

1999 Expanded Edition Bonus Tracks

17. You're the One (03:20)
18. Dark Side of the World (03:09)
19. I'm in Love with You (03:00)
20. Just a Little Love (Before My Life Is Gone) (02:49)
21. Baby I'm Glad That Things Worked Out So Well (03:04)
22. Hanging On (02:46)
23. Gotta Say It, Gonna Tell It Like It Is (02:24)
24. Love's More Precious Than Gold (02:56)
25. Loving and Affection (02:34)
26. Marvin Gaye Interview (Excerpt) - Spoken Word (01:00)

Exact Audio Copy V1.3 from 2. September 2016

EAC extraction logfile from 22. February 2018, 0:04

Marvin Gaye / Love Starved Heart (Expanded Edition)

Used drive : ASUS DRW-24B1ST a Adapter: 1 ID: 0

Read mode : Secure
Utilize accurate stream : Yes
Defeat audio cache : Yes
Make use of C2 pointers : No

Read offset correction : 6
Overread into Lead-In and Lead-Out : No
Fill up missing offset samples with silence : Yes
Delete leading and trailing silent blocks : No
Null samples used in CRC calculations : Yes
Used interface : Native Win32 interface for Win NT & 2000

Used output format : User Defined Encoder
Selected bitrate : 896 kBit/s
Quality : High
Add ID3 tag : No
Command line compressor : C:\Program Files (x86)\Exact Audio Copy\Flac\flac.exe
Additional command line options : %ishigh%-V -p -l 12 -b 4096 -m -e -r 8%ishigh%%islow%-5%islow% –replay-gain -T "ARTIST=%artist%" -T "ALBUM=%albumtitle%" -T "TITLE=%title%" -T "DATE=%year%" -T "TRACKNUMBER=%tracknr%" -T "GENRE=%genre%" -T "ENSEMBLE=%albuminterpret%" -T "ALBUMARTIST=%albumartist%" -T "COMPOSER=%albumcomposer%" -T "DISCNUMBER=%cdnumber%" -T "TOTALDISCS=%totalcds%" -T "TOTALTRACKS=%numtracks%" -T "SOURCEMEDIA=CD" -T "COMMENT=%comment%" %hascover%-T "PICTURE=%coverfile%"%hascover% %source%


TOC of the extracted CD

Track | Start | Length | Start sector | End sector
––––––––––––––––––––––––––––-
1 | 0:00.00 | 3:07.57 | 0 | 14081
2 | 3:07.57 | 2:22.63 | 14082 | 24794
3 | 5:30.45 | 3:14.15 | 24795 | 39359
4 | 8:44.60 | 2:42.32 | 39360 | 51541
5 | 11:27.17 | 2:29.58 | 51542 | 62774
6 | 13:57.00 | 2:39.60 | 62775 | 74759
7 | 16:36.60 | 2:13.15 | 74760 | 84749
8 | 18:50.00 | 2:40.52 | 84750 | 96801
9 | 21:30.52 | 3:24.43 | 96802 | 112144
10 | 24:55.20 | 2:20.17 | 112145 | 122661
11 | 27:15.37 | 2:38.65 | 122662 | 134576
12 | 29:54.27 | 2:50.55 | 134577 | 147381
13 | 32:45.07 | 3:25.33 | 147382 | 162789
14 | 36:10.40 | 2:57.65 | 162790 | 176129
15 | 39:08.30 | 3:15.57 | 176130 | 190811
16 | 42:24.12 | 3:36.73 | 190812 | 207084
17 | 46:01.10 | 3:20.25 | 207085 | 222109
18 | 49:21.35 | 3:08.47 | 222110 | 236256
19 | 52:30.07 | 3:00.33 | 236257 | 249789
20 | 55:30.40 | 2:49.05 | 249790 | 262469
21 | 58:19.45 | 3:04.25 | 262470 | 276294
22 | 61:23.70 | 2:46.00 | 276295 | 288744
23 | 64:09.70 | 2:23.62 | 288745 | 299531
24 | 66:33.57 | 2:55.43 | 299532 | 312699
25 | 69:29.25 | 2:34.27 | 312700 | 324276
26 | 72:03.52 | 1:00.28 | 324277 | 328804


Range status and errors

Selected range

Filename C:\Users\M@ce\Music\Archives\Rips\Marvin Gaye - Love Starved Heart (Expanded Edition).wav

Peak level 97.5 %
Extraction speed 6.4 X
Range quality 99.9 %
Test CRC 6DCEDE8E
Copy CRC 6DCEDE8E
Copy OK

No errors occurred


AccurateRip summary

Track 1 accurately ripped (confidence 7) [355CF836] (AR v2)
Track 2 accurately ripped (confidence 7) [9CC22E62] (AR v2)
Track 3 accurately ripped (confidence 7) [B465E1A8] (AR v2)
Track 4 accurately ripped (confidence 7) [36984A25] (AR v2)
Track 5 accurately ripped (confidence 7) [CCC242C2] (AR v2)
Track 6 accurately ripped (confidence 7) [79D3A464] (AR v2)
Track 7 accurately ripped (confidence 7) [E63DD9B9] (AR v2)
Track 8 accurately ripped (confidence 7) [F1B5767D] (AR v2)
Track 9 accurately ripped (confidence 8) [7700796F] (AR v2)
Track 10 accurately ripped (confidence 7) [B938489A] (AR v2)
Track 11 accurately ripped (confidence 7) [BAE1355E] (AR v2)
Track 12 accurately ripped (confidence 7) [F18CE52C] (AR v2)
Track 13 accurately ripped (confidence 7) [FAF0742B] (AR v2)
Track 14 accurately ripped (confidence 7) [E79A9517] (AR v2)
Track 15 accurately ripped (confidence 7) [88177FBA] (AR v2)
Track 16 accurately ripped (confidence 8) [460D4709] (AR v2)
Track 17 accurately ripped (confidence 8) [C4C4652C] (AR v2)
Track 18 accurately ripped (confidence 7) [F19C903C] (AR v2)
Track 19 accurately ripped (confidence 7) [0A6EF3A9] (AR v2)
Track 20 accurately ripped (confidence 7) [5036DC22] (AR v2)
Track 21 accurately ripped (confidence 7) [696C0E53] (AR v2)
Track 22 accurately ripped (confidence 7) [830BCE2F] (AR v2)
Track 23 accurately ripped (confidence 7) [B18E5B30] (AR v2)
Track 24 accurately ripped (confidence 7) [069472A2] (AR v2)
Track 25 accurately ripped (confidence 7) [0589ACC7] (AR v2)
Track 26 accurately ripped (confidence 7) [B82CE90D] (AR v2)

All tracks accurately ripped

End of status report

–– CUETools DB Plugin V2.1.6

[CTDB TOCID: .rf8qTZRFeDcYTynVX7hQ8NqloU-] found
Submit result: .rf8qTZRFeDcYTynVX7hQ8NqloU- has been confirmed
Track | CTDB Status
1 | (10/10) Accurately ripped
2 | (10/10) Accurately ripped
3 | (10/10) Accurately ripped
4 | (10/10) Accurately ripped
5 | (10/10) Accurately ripped
6 | (10/10) Accurately ripped
7 | (10/10) Accurately ripped
8 | (10/10) Accurately ripped
9 | (10/10) Accurately ripped
10 | (10/10) Accurately ripped
11 | (10/10) Accurately ripped
12 | (10/10) Accurately ripped
13 | (10/10) Accurately ripped
14 | (10/10) Accurately ripped
15 | (10/10) Accurately ripped
16 | (10/10) Accurately ripped
17 | (10/10) Accurately ripped
18 | (10/10) Accurately ripped
19 | (10/10) Accurately ripped
20 | (10/10) Accurately ripped
21 | (10/10) Accurately ripped
22 | (10/10) Accurately ripped
23 | (10/10) Accurately ripped
24 | (10/10) Accurately ripped
25 | (10/10) Accurately ripped
26 | (10/10) Accurately ripped


==== Log checksum 9B277918C729790A190315C1B8EEC88719DE7DC4AE309987955423518B442A8F ====

––––––––––––––––––––––––––––––––––––––––
Analyzed: Marvin Gaye / Love Starved Heart (Expanded Edition)
––––––––––––––––––––––––––––––––––––––––

DR Peak RMS Duration Track
––––––––––––––––––––––––––––––––––––––––
DR11 -0.59 dB -12.47 dB 3:08 01-It's a Desperate Situation
DR10 -0.55 dB -12.57 dB 2:23 02-I Found Something
DR11 -0.83 dB -14.54 dB 3:14 03-When I Feel the Need
DR11 -0.69 dB -12.53 dB 2:42 04-This Love Starved Heart of Mine (It's Killing Me)
DR11 -0.57 dB -13.52 dB 2:30 05-You'se a Son of a Gun
DR14 -0.47 dB -16.64 dB 2:40 06-For Us Both I'll Be Concerned
DR12 -0.76 dB -14.72 dB 2:13 07-Darling You're Wonderful
DR11 -1.00 dB -13.97 dB 2:41 08-Sad Souvenirs
DR9 -0.97 dB -12.40 dB 3:25 09-I Can't Help It (I Love You)
DR8 -1.50 dB -11.39 dB 2:20 10-It's a Lonely World without Your Love
DR9 -1.30 dB -12.79 dB 2:39 11-Say When
DR10 -0.67 dB -13.16 dB 2:51 12-Lucky Lucky Me
DR10 -2.06 dB -12.83 dB 3:25 13-Get Away Heartbreak (Keep On Moving)
DR12 -0.21 dB -14.12 dB 2:58 14-Court of the Common Plea
DR10 -0.23 dB -12.74 dB 3:16 15-You Make Me Do Things (I Don't Want to Do)
DR13 -0.33 dB -15.76 dB 3:37 16-Hope I Don't Get My Heart Broke
DR9 -2.16 dB -14.07 dB 3:20 17-You're the One [1999 Lost & Found Version] (Mono)
DR12 -1.90 dB -15.40 dB 3:09 18-Dark Side of the World [1999 Lost & Found Version] (Mono)
DR10 -1.47 dB -12.91 dB 3:00 19-I'm in Love with You [1999 Lost & Found Version] (Mono)
DR8 -5.82 dB -15.17 dB 2:49 20-Just a Little Love (Before My Life Is Gone) [1999 Lost & Found Version] (Mono)
DR9 -2.42 dB -13.06 dB 3:04 21-Baby I'm Glad That Things Worked Out So Well [1999 Lost & Found Version] (Mono)
DR11 -1.00 dB -13.99 dB 2:46 22-Hanging On [1999 Lost and Found Version] (Mono)
DR10 -2.74 dB -14.32 dB 2:24 23-Gotta Say It, Gonna Tell It Like It Is [1999 Lost& Found Version] (Mono)
DR8 -2.39 dB -13.66 dB 2:56 24-Love's More Precious Than Gold [1999 Lost & Found Version] (Mono)
DR8 -3.05 dB -12.96 dB 2:34 25-Loving and Affection [1999 Lost & Found Version] (Mono)
DR12 -6.49 dB -20.88 dB 1:00 26-Marvin Gaye Interview (Excerpt) - Spoken Word Bonus
––––––––––––––––––––––––––––––––––––––––

Number of tracks: 26
Official DR value: DR10

Samplerate: 44100 Hz
Channels: 2
Bits per sample: 16
Bitrate: 452 kbps
Codec: FLAC
================================================================================

Thanks to M@ce

password: BlondStyle