Subcategories

Max Emanuel Cencic, Karsten Erik Ose, Ornamente 99 - Vivaldi, D.Scarlatti, Caldara: Cantatas (2012)

Posted By: ArlegZ
Max Emanuel Cencic, Karsten Erik Ose, Ornamente 99 - Vivaldi, D.Scarlatti, Caldara: Cantatas (2012)

Max Emanuel Cencic, Karsten Erik Ose, Ornamente 99 - Vivaldi, D.Scarlatti, Caldara: Cantatas (2012)
EAC | FLAC | Image (Cue & Log) ~ 912 Mb | Total time: 60:34+60:32+61:50 | Scans included
Classical | Label: Capriccio | # C7142 | Recorded: 2003-2005

This series of Italian cantatas by three eminent contemporaries makes for refined and focused listening.
Cencic…marries virtuosity with colour. The result is singing of great reach and range, in which verbal sensitivity and bravura execution are usually put at the service of the music.
It helps that in Ornamente 99, directed by Karsten Erik Ose, he has personable and instrumentally rich colleagues. The avian flutes in Vivaldi’s O mie porpore più belle offer rich support, and so too does the solo violin in the last aria, in which devotion and panache are allied. Cencic’s instinct for the dramatic is exemplified by Cessate, omai cessate where one finds that he cannily deploys his lower chest voice to generate an almost operatic tension. Elsewhere in these incisive, dramatic Vivaldi cantatas, one finds Cencic’s divisions spot-on, his legato pure and unwavering, and his recitatives excellently paced. Ose allows his obbligato players full rein where needed…He also galvanizes his strings in the stormy Amor, hai vinto, a ‘sea tossed’ cantata ripely encouraging surging string interjections. The strumming sea wash is excellently conveyed.
Domenico Scarlatti was another master of the Italian cantata…The emotive instability of the final aria of Tinte a note di sangue…is excellently realised, without a hint of over-theatricality. Scarlatti gives his vocal soloist plenty of fast divisions to surmount and this means that ensemble with instrumental soloists needs to be at the highest pitch of engagement, which here it is.
Caldara was another supremely gifted writer for the voice and in his Sempre mi torna in mente he ensures that the solo violin interplays with the singer. In fact this whole sonata witnesses a range of obbligato opportunities for expressive instrumental commentary. The accompanying orchestral colours in Non v’è pena provide a rich texture for Cencic…Caldara writes beautifully for bassoon and for the chalumeau, both of which are elegantly played, and provide a wider range of colour.
Throughout these three discs…the performances are exemplary.
–Jonathan Woolf

Performer:
Max Emanuel Cencic, countertenor
Ornamente 99
Conductor - Karsten Erik Ose

Track List:
CD1: Antonio Vivaldi (1678-1741)
O mie porpore più belle, RV 685
01. Aria: O mie porpore più belle
02. Recitative: Tutta vaga e festosa
03. Aria: No, non vidi il più gentile
Cessate, omai cessate, RV 684
04. Recitative: Cessate, omai cessate
05. Aria: Ah, ch'infelice sempre
06. Recitative: A voi dunque corro
07. Aria: Nell'orrido albergo
Care selve, amici prati, RV 671
08. Aria: Care selve, amici prati
09. Recitative: Ben mal'accorto e folle all'or io fui
10. Aria: Placido in letto ombroso
Alla caccia, Alla caccia, RV 670
11. Aria: Alla caccia dell'alme e de' cori
12. Recitative: Ma sia crudele o infida, oh Dio, mi piace
13. Aria: Preso sei mio cor piagato
Amor, hai vinto, RV 683
14. Recitative: Amor, hai vinto
15. Aria: Passo di pena in pena
16. Recitative: In che strano e confuso
17. Aria: Se a me rivolge il ciglio
CD2: Domenico Scarlatti (1685-1757)
Pur nel sonno almen tal'ora
01. Introduzione alla Cantata
02. Minuetto
03. Aria: Pur nel sonno almen tal'ora
04. Recitativo: Pria dall'aurora
05. Aria: Parti con l'ombra
Tinte a note di sangue
06. Recitativo: Tinte a note di sangue queste cifre dolenti
07. Aria: Tuo mi chiami, e tuo non sono
08. Recitativo: Almen se d'altro amante più ti lega un sospir
09. Aria: Se mi dirai cor mio, cor mio
Scritte con falso inganno
10. Recitativo: Scritte con falso inganno certe note dolenti
11. Aria: Che vuol dir quel tuo "non sono"
12. Recitativo: Dimmi, lingua, bugiarda, quai sospir
13. Aria: Vorresti, si vorresti dal labro mio sentir pace
Dir vorrei, ah m'arrossisco
14. Aria: Dir vorei
15. Recitativo: Qual'or da te lontano
16. Aria: Quante furie ha il cieco Averno
CD3: Antonio Caldara (1671-1736)
Sempre mi torna in mente
01. Sinfonia
02. Recitative: Sempre mi torna in mente
03. Aria con violini: Peno, e ver
04. Recitative: Belle luci amorose
05. Aria: Son dardi i vostri sguardi
Non v'e pena
06. Aria: Non v'e pena
07. Recitative: Lunge dall'idol caro
08. Aria: Se pur costante sei
Da tuoi lumi
09. Aria: Da tuoi lumi
10. Recitative: Vago mio, sol tu puoi far
11. Aria: Nasce la mia speranza
Chiacona
12. Chiacona
Amante recidivo (Che speravi)
13. Aria: Che speravi
14. Recitative: S'altre volte provasti
15. Aria: Navicella che provo
16. Recitative: Dunque d'Amor
17. Aria: Vorrei pur consigliarti
Vedro senz'onde il mare
18. Aria: Vedro senz'onde il mare
19. Recitative: Non vale più celarmi
20. Aria: lo so qual pena senti


Exact Audio Copy V1.3 from 2. September 2016

EAC extraction logfile from 20. February 2018, 20:08

Max Emanuel Cencic, Karsten Erik Ose, Ornamente 99 / Vivaldi - Cantatas

Used drive : HL-DT-STDVDRAM GH24NS95 Adapter: 1 ID: 0

Read mode : Secure
Utilize accurate stream : Yes
Defeat audio cache : Yes
Make use of C2 pointers : No

Read offset correction : 6
Overread into Lead-In and Lead-Out : No
Fill up missing offset samples with silence : Yes
Delete leading and trailing silent blocks : No
Null samples used in CRC calculations : Yes
Used interface : Native Win32 interface for Win NT & 2000

Used output format : User Defined Encoder
Selected bitrate : 128 kBit/s
Quality : High
Add ID3 tag : No
Command line compressor : C:\Program Files\Exact Audio Copy\Flac\flac.exe
Additional command line options : -V -8 -T "Date=%year%" -T "Genre=%genre%" %source%


TOC of the extracted CD

Track | Start | Length | Start sector | End sector
––––––––––––––––––––––––––––-
1 | 0:00.00 | 4:15.01 | 0 | 19125
2 | 4:15.01 | 0:20.27 | 19126 | 20652
3 | 4:35.28 | 4:50.68 | 20653 | 42470
4 | 9:26.21 | 1:56.38 | 42471 | 51208
5 | 11:22.59 | 6:49.38 | 51209 | 81921
6 | 18:12.22 | 1:05.31 | 81922 | 86827
7 | 19:17.53 | 3:32.20 | 86828 | 102747
8 | 22:49.73 | 6:45.32 | 102748 | 133154
9 | 29:35.30 | 1:07.67 | 133155 | 138246
10 | 30:43.22 | 3:17.73 | 138247 | 153094
11 | 34:01.20 | 2:43.45 | 153095 | 165364
12 | 36:44.65 | 0:27.41 | 165365 | 167430
13 | 37:12.31 | 7:00.55 | 167431 | 198985
14 | 44:13.11 | 0:58.52 | 198986 | 203387
15 | 45:11.63 | 8:45.43 | 203388 | 242805
16 | 53:57.31 | 1:31.70 | 242806 | 249700
17 | 55:29.26 | 5:04.58 | 249701 | 272558


Range status and errors

Selected range

Filename C:\Program Files\Exact Audio Copy\Flac\Vivaldi - Cantatas.wav

Peak level 97.9 %
Extraction speed 7.3 X
Range quality 100.0 %
Test CRC DF420B5A
Copy CRC DF420B5A
Copy OK

No errors occurred

End of status report

==== Log checksum 22A0285381224C691804A0D826B041C3139E7455CB37757F6406C668C8E2858E ====


Exact Audio Copy V1.3 from 2. September 2016

EAC extraction logfile from 20. February 2018, 21:39

Max Emanuel Cencic, Karsten Erik Ose, Ornamente 99 / Scarlatti D. - Cantate d'Amore

Used drive : HL-DT-STDVDRAM GH24NS95 Adapter: 1 ID: 0

Read mode : Secure
Utilize accurate stream : Yes
Defeat audio cache : Yes
Make use of C2 pointers : No

Read offset correction : 6
Overread into Lead-In and Lead-Out : No
Fill up missing offset samples with silence : Yes
Delete leading and trailing silent blocks : No
Null samples used in CRC calculations : Yes
Used interface : Native Win32 interface for Win NT & 2000

Used output format : User Defined Encoder
Selected bitrate : 128 kBit/s
Quality : High
Add ID3 tag : No
Command line compressor : C:\Program Files\Exact Audio Copy\Flac\flac.exe
Additional command line options : -V -8 -T "Date=%year%" -T "Genre=%genre%" %source%


TOC of the extracted CD

Track | Start | Length | Start sector | End sector
––––––––––––––––––––––––––––-
1 | 0:00.00 | 2:38.67 | 0 | 11916
2 | 2:38.67 | 1:19.13 | 11917 | 17854
3 | 3:58.05 | 8:12.50 | 17855 | 54804
4 | 12:10.55 | 2:33.06 | 54805 | 66285
5 | 14:43.61 | 5:32.60 | 66286 | 91245
6 | 20:16.46 | 0:59.61 | 91246 | 95731
7 | 21:16.32 | 5:58.49 | 95732 | 122630
8 | 27:15.06 | 0:51.16 | 122631 | 126471
9 | 28:06.22 | 5:56.58 | 126472 | 153229
10 | 34:03.05 | 0:53.00 | 153230 | 157204
11 | 34:56.05 | 3:53.23 | 157205 | 174702
12 | 38:49.28 | 0:51.04 | 174703 | 178531
13 | 39:40.32 | 5:08.58 | 178532 | 201689
14 | 44:49.15 | 6:43.55 | 201690 | 231969
15 | 51:32.70 | 1:30.01 | 231970 | 238720
16 | 53:02.71 | 7:28.49 | 238721 | 272369


Range status and errors

Selected range

Filename C:\Program Files\Exact Audio Copy\Flac\Scarlatti D. - Cantate d'Amore.wav

Peak level 99.9 %
Extraction speed 7.3 X
Range quality 100.0 %
Test CRC 4ECC3F07
Copy CRC 4ECC3F07
Copy OK

No errors occurred

End of status report

==== Log checksum 0984D501B314399ED6E4F3F908A20C6C4109C7C77A01222B6391F177BF17835F ====


Exact Audio Copy V1.3 from 2. September 2016

EAC extraction logfile from 20. February 2018, 22:30

Max Emanuel Cencic, Karsten Erik Ose, Ornamente 99 / Caldara - Cantatas

Used drive : HL-DT-STDVDRAM GH24NS95 Adapter: 1 ID: 0

Read mode : Secure
Utilize accurate stream : Yes
Defeat audio cache : Yes
Make use of C2 pointers : No

Read offset correction : 6
Overread into Lead-In and Lead-Out : No
Fill up missing offset samples with silence : Yes
Delete leading and trailing silent blocks : No
Null samples used in CRC calculations : Yes
Used interface : Native Win32 interface for Win NT & 2000

Used output format : User Defined Encoder
Selected bitrate : 128 kBit/s
Quality : High
Add ID3 tag : No
Command line compressor : C:\Program Files\Exact Audio Copy\Flac\flac.exe
Additional command line options : -V -8 -T "Date=%year%" -T "Genre=%genre%" %source%


TOC of the extracted CD

Track | Start | Length | Start sector | End sector
––––––––––––––––––––––––––––-
1 | 0:00.00 | 2:44.49 | 0 | 12348
2 | 2:44.49 | 1:05.57 | 12349 | 17280
3 | 3:50.31 | 6:35.51 | 17281 | 46956
4 | 10:26.07 | 0:41.54 | 46957 | 50085
5 | 11:07.61 | 3:06.70 | 50086 | 64105
6 | 14:14.56 | 7:23.66 | 64106 | 97396
7 | 21:38.47 | 1:30.36 | 97397 | 104182
8 | 23:09.08 | 4:15.28 | 104183 | 123335
9 | 27:24.36 | 3:18.53 | 123336 | 138238
10 | 30:43.14 | 0:35.58 | 138239 | 140921
11 | 31:18.72 | 2:14.40 | 140922 | 151011
12 | 33:33.37 | 5:45.04 | 151012 | 176890
13 | 39:18.41 | 4:01.51 | 176891 | 195016
14 | 43:20.17 | 0:55.47 | 195017 | 199188
15 | 44:15.64 | 2:46.66 | 199189 | 211704
16 | 47:02.55 | 0:37.66 | 211705 | 214545
17 | 47:40.46 | 3:37.53 | 214546 | 230873
18 | 51:18.24 | 5:37.00 | 230874 | 256148
19 | 56:55.24 | 0:46.60 | 256149 | 259658
20 | 57:42.09 | 4:07.60 | 259659 | 278243


Range status and errors

Selected range

Filename C:\Program Files\Exact Audio Copy\Flac\Caldara - Cantatas.wav

Peak level 97.7 %
Extraction speed 3.1 X
Range quality 100.0 %
Test CRC F7B306B0
Copy CRC F7B306B0
Copy OK

No errors occurred

End of status report

==== Log checksum 8994152B2193413F8A81125D95DC3861D79095559A74C5E7F176FD0D64DCBD16 ====

Max Emanuel Cencic, Karsten Erik Ose, Ornamente 99 - Vivaldi, D.Scarlatti, Caldara: Cantatas (2012)