Tags
Language
Tags

Maynard Ferguson - Memories of Maynard: The Best of the Columbia Years (2018)

Posted By: gribovar
Maynard Ferguson - Memories of Maynard: The Best of the Columbia Years (2018)

Maynard Ferguson - Memories of Maynard: The Best of the Columbia Years (2018)
EAC Rip | FLAC (tracks+.cue+log) - 575 MB | MP3 CBR 320 kbps (LAME 3.93) - 179 MB | Covers - 66 MB
Genre: Jazz, Big Band, Fusion | RAR 3% Rec. | Label: Sleepy Night Records (SNR005CD)

Maynard Ferguson, passed on 14 years ago, regarded as a one off, there will never be another musician like him with his power and incredible high note technique on the trumpet. This is his Greatest Hits from his time with Columbia, Big Band Pop/Jazz/Disco like never hear before, some are rare mixes never available on CD before. In 1977, resulted in a top-40 (#22) pop single, "Gonna Fly Now" (from the movie Rocky), a rare accomplishment for a jazz musician in the 1970s. Film and television themes figured prominently in the surging popularity of MF. On this CD the "Theme from Star Trek," and "Main Title from Star Wars," Bernstein's "Maria" from West Side Story, "Scheherazade" from the classical music realm, " Dorothy's "Over The Rainbow" from The Wizard of Oz. For the first time anywhere, on any format, we bring you the previously unreleased, "Shanti Mantra." Now, we leave you to the music and to your Memories Of Maynard.
Tracklist:
01. Chameleon
02. Primal Scream
03. Pagliacci
04. Gonna Fly Now (Theme from Rocky)
05. Theme from "Star Trek"
06. Maria (From "West Side Story")
07. Scheherazade (12" Disco Mix)
08. Over the Rainbow
09. Theme from Star Trek-The Motion Picture
10. Om Sai Ram
11. Hollywood
12. Portuguese Love
13. Shanti Mantra

Total time: 01:15:56

Exact Audio Copy V1.3 from 2. September 2016

EAC extraction logfile from 20. April 2020, 18:05

Maynard Ferguson / Memories Of Maynard - The Best Of The Columbia Years

Used drive : HL-DT-STDVD+-RW GU90N Adapter: 1 ID: 0

Read mode : Secure
Utilize accurate stream : Yes
Defeat audio cache : Yes
Make use of C2 pointers : No

Read offset correction : 102
Overread into Lead-In and Lead-Out : No
Fill up missing offset samples with silence : Yes
Delete leading and trailing silent blocks : No
Null samples used in CRC calculations : Yes
Used interface : Native Win32 interface for Win NT & 2000
Gap handling : Appended to previous track

Used output format : User Defined Encoder
Selected bitrate : 768 kBit/s
Quality : High
Add ID3 tag : No
Command line compressor : C:\Program Files (x86)\Exact Audio Copy\Flac\flac.exe
Additional command line options : -8 -V -T "ARTIST=%artist%" -T "TITLE=%title%" -T "ALBUM=%albumtitle%" -T "DATE=%year%" -T "TRACKNUMBER=%tracknr%" -T "GENRE=%genre%" -T "COMMENT=%comment%" -T "BAND=%albuminterpret%" -T "ALBUMARTIST=%albuminterpret%" -T "COMPOSER=%composer%" %haslyrics%–tag-from-file=LYRICS="%lyricsfile%"%haslyrics% -T "DISCNUMBER=%cdnumber%" -T "TOTALDISCS=%totalcds%" -T "TOTALTRACKS=%numtracks%" %hascover%–picture="%coverfile%"%hascover% %source% -o %dest%


TOC of the extracted CD

Track | Start | Length | Start sector | End sector
––––––––––––––––––––––––––––-
1 | 0:00.00 | 4:39.71 | 0 | 20995
2 | 4:39.71 | 7:13.59 | 20996 | 53529
3 | 11:53.55 | 5:59.40 | 53530 | 80494
4 | 17:53.20 | 4:27.24 | 80495 | 100543
5 | 22:20.44 | 5:10.01 | 100544 | 123794
6 | 27:30.45 | 6:11.33 | 123795 | 151652
7 | 33:42.03 | 8:36.38 | 151653 | 190390
8 | 42:18.41 | 5:34.67 | 190391 | 215507
9 | 47:53.33 | 3:30.29 | 215508 | 231286
10 | 51:23.62 | 7:53.33 | 231287 | 266794
11 | 59:17.20 | 5:28.41 | 266795 | 291435
12 | 64:45.61 | 5:21.65 | 291436 | 315575
13 | 70:07.51 | 5:48.53 | 315576 | 341728


Track 1

Filename D:\Lietotājs\My Music\Flac\01. Chameleon.wav

Pre-gap length 0:00:02.00

Peak level 99.4 %
Extraction speed 1.5 X
Track quality 100.0 %
Test CRC DB1561E5
Copy CRC DB1561E5
Accurately ripped (confidence 2) [C548A9C0] (AR v2)
Copy OK

Track 2

Filename D:\Lietotājs\My Music\Flac\02. Primal Scream.wav

Pre-gap length 0:00:02.00

Peak level 99.4 %
Extraction speed 1.8 X
Track quality 100.0 %
Test CRC BB4EA555
Copy CRC BB4EA555
Accurately ripped (confidence 2) [F54E229E] (AR v2)
Copy OK

Track 3

Filename D:\Lietotājs\My Music\Flac\03. Pagliacci.wav

Pre-gap length 0:00:02.00

Peak level 100.0 %
Extraction speed 1.8 X
Track quality 99.9 %
Test CRC 3FB39009
Copy CRC 3FB39009
Accurately ripped (confidence 2) [4220340C] (AR v2)
Copy OK

Track 4

Filename D:\Lietotājs\My Music\Flac\04. Gonna Fly Now.wav

Pre-gap length 0:00:02.01

Peak level 100.0 %
Extraction speed 2.1 X
Track quality 100.0 %
Test CRC CE12773A
Copy CRC CE12773A
Accurately ripped (confidence 2) [3DF5D789] (AR v2)
Copy OK

Track 5

Filename D:\Lietotājs\My Music\Flac\05. Theme From 'Star Trek'.wav

Pre-gap length 0:00:02.00

Peak level 100.0 %
Extraction speed 2.2 X
Track quality 100.0 %
Test CRC 21E043FB
Copy CRC 21E043FB
Accurately ripped (confidence 2) [10615069] (AR v2)
Copy OK

Track 6

Filename D:\Lietotājs\My Music\Flac\06. Maria.wav

Pre-gap length 0:00:01.74

Peak level 100.0 %
Extraction speed 2.4 X
Track quality 100.0 %
Test CRC 0B001144
Copy CRC 0B001144
Accurately ripped (confidence 2) [D3C46BA6] (AR v2)
Copy OK

Track 7

Filename D:\Lietotājs\My Music\Flac\07. Scheherazade.wav

Pre-gap length 0:00:02.01

Peak level 99.4 %
Extraction speed 2.6 X
Track quality 100.0 %
Test CRC 6881946A
Copy CRC 6881946A
Accurately ripped (confidence 2) [982E92C7] (AR v2)
Copy OK

Track 8

Filename D:\Lietotājs\My Music\Flac\08. Over The Rainbow.wav

Pre-gap length 0:00:01.74

Peak level 99.4 %
Extraction speed 2.5 X
Track quality 100.0 %
Test CRC 13574D2D
Copy CRC 13574D2D
Accurately ripped (confidence 2) [1EE8764F] (AR v2)
Copy OK

Track 9

Filename D:\Lietotājs\My Music\Flac\09. Main Theme From Star Trek-The Motion Picture.wav

Pre-gap length 0:00:01.74

Peak level 99.4 %
Extraction speed 2.4 X
Track quality 100.0 %
Test CRC B14D58CB
Copy CRC B14D58CB
Accurately ripped (confidence 2) [B2ACF80D] (AR v2)
Copy OK

Track 10

Filename D:\Lietotājs\My Music\Flac\10. Om Sai Ram.wav

Pre-gap length 0:00:01.74

Peak level 99.4 %
Extraction speed 2.5 X
Track quality 99.9 %
Test CRC D0A3AB5E
Copy CRC D0A3AB5E
Accurately ripped (confidence 2) [2771A9EF] (AR v2)
Copy OK

Track 11

Filename D:\Lietotājs\My Music\Flac\11. Hollywood.wav

Pre-gap length 0:00:01.74

Peak level 100.0 %
Extraction speed 2.2 X
Track quality 100.0 %
Test CRC CA21004D
Copy CRC CA21004D
Accurately ripped (confidence 2) [B92000B8] (AR v2)
Copy OK

Track 12

Filename D:\Lietotājs\My Music\Flac\12. Portuguese Love.wav

Pre-gap length 0:00:01.74

Peak level 99.3 %
Extraction speed 2.4 X
Track quality 100.0 %
Test CRC 774CDD18
Copy CRC 774CDD18
Accurately ripped (confidence 2) [EA028A4E] (AR v2)
Copy OK

Track 13

Filename D:\Lietotājs\My Music\Flac\13. Shanti Mantra.wav

Pre-gap length 0:00:02.00

Peak level 99.4 %
Extraction speed 1.6 X
Track quality 100.0 %
Test CRC 1C5977D8
Copy CRC 1C5977D8
Accurately ripped (confidence 2) [450BF239] (AR v2)
Copy OK


All tracks accurately ripped

No errors occurred

End of status report

–– CUETools DB Plugin V2.1.6

[CTDB TOCID: byFfUcmzR71zAiVTabrC3dvkI9s-] found
Submit result: byFfUcmzR71zAiVTabrC3dvkI9s- has been confirmed
Track | CTDB Status
1 | (4/4) Accurately ripped
2 | (4/4) Accurately ripped
3 | (4/4) Accurately ripped
4 | (4/4) Accurately ripped
5 | (4/4) Accurately ripped
6 | (4/4) Accurately ripped
7 | (4/4) Accurately ripped
8 | (4/4) Accurately ripped
9 | (4/4) Accurately ripped
10 | (4/4) Accurately ripped
11 | (4/4) Accurately ripped
12 | (4/4) Accurately ripped
13 | (4/4) Accurately ripped


==== Log checksum 4D74DA48413B459E7BAD11FA08603C752F3B964150A9129FCF33DA7D0B7540E3 ====

[CUETools log; Date: 12.05.2020 14:09:33; Version: 2.1.4]
[CTDB TOCID: byFfUcmzR71zAiVTabrC3dvkI9s-] found.
Track | CTDB Status
1 | (5/5) Accurately ripped
2 | (5/5) Accurately ripped
3 | (5/5) Accurately ripped
4 | (5/5) Accurately ripped
5 | (5/5) Accurately ripped
6 | (5/5) Accurately ripped
7 | (5/5) Accurately ripped
8 | (5/5) Accurately ripped
9 | (5/5) Accurately ripped
10 | (5/5) Accurately ripped
11 | (5/5) Accurately ripped
12 | (5/5) Accurately ripped
13 | (5/5) Accurately ripped
[AccurateRip ID: 00245f77-016d1469-b711cc0d] found.
Track [ CRC | V2 ] Status
01 [a338e6e2|c548a9c0] (0+2/2) Accurately ripped
02 [eea55806|f54e229e] (0+2/2) Accurately ripped
03 [25cff3a8|4220340c] (0+2/2) Accurately ripped
04 [7238b5db|3df5d789] (0+2/2) Accurately ripped
05 [c93c3086|10615069] (0+2/2) Accurately ripped
06 [f7014d68|d3c46ba6] (0+2/2) Accurately ripped
07 [8acd1666|982e92c7] (0+2/2) Accurately ripped
08 [558f68a6|1ee8764f] (0+2/2) Accurately ripped
09 [c07dffe7|b2acf80d] (0+2/2) Accurately ripped
10 [b71f7b03|2771a9ef] (0+2/2) Accurately ripped
11 [4aae9f12|b92000b8] (0+2/2) Accurately ripped
12 [2fe06104|ea028a4e] (0+2/2) Accurately ripped
13 [c09112b0|450bf239] (0+2/2) Accurately ripped

Track Peak [ CRC32 ] [W/O NULL] [ LOG ]
– 100,0 [D91D1729] [11B50376]
01 99,4 [DB1561E5] [07741C8B] CRC32
02 99,4 [BB4EA555] [D59B01E8] CRC32
03 100,0 [3FB39009] [B3452F90] CRC32
04 100,0 [CE12773A] [580E9669] CRC32
05 100,0 [21E043FB] [A6D7D3AC] CRC32
06 100,0 [0B001144] [48CA9DC6] CRC32
07 99,4 [6881946A] [D70D1F73] CRC32
08 99,4 [13574D2D] [5C2C28C6] CRC32
09 99,4 [B14D58CB] [C4FD5C2F] CRC32
10 99,4 [D0A3AB5E] [FC469733] CRC32
11 100,0 [CA21004D] [37EDFB1F] CRC32
12 99,3 [774CDD18] [5DF3E5EF] CRC32
13 99,4 [1C5977D8] [0F4C686B] CRC32

Thanks to torzok

See also:
Maynard Ferguson - Maynard Ferguson Octet (1955) [Reissue 2008]