Subcategories

John McLaughlin/Carlos Santana - Live In Chicago (1993) {Jazz Door}

Posted By: TestTickles
John McLaughlin/Carlos Santana - Live In Chicago (1993) {Jazz Door}

John McLaughlin/Carlos Santana - Live In Chicago (1993) {Jazz Door}
EAC Rip | FLAC with CUE and log | scans | 442 mb
MP3 CBR 320kbps | RAR | 172 mb
Genre: jazz, jazz fusion

Live In Chicago is a live bootleg album by guitarists John McLaughlin and Carlos Santana. This was recorded in 1974 during the tour for their Love Devotion Surrender album, This was released on the Jazz Door label.

John McLaughlin/Carlos Santana - Live In Chicago (1993) {Jazz Door}

1. Flame Sky (20:04)
2. Naima (15:46)
3. The Live Divine (20:08)
4. A Love Supreme (19:30)

Exact Audio Copy V0.99 prebeta 4 from 23. January 2008

Îò÷¸ò EAC îá èçâëå÷åíèè, âûïîëíåííîì 29. àïðåëÿ 2010, 7:35

John McLaughlin, Carlos Santana / Live In Chicago

Äèñêîâîä: ASUS DRW-20B1LT Adapter: 4 ID: 0

Ðåæèì ÷òåíèÿ : Äîñòîâåðíîñòü
Èñïîëüçîâàíèå òî÷íîãî ïîòîêà : Äà
Îòêëþ÷åíèå êýøà àóäèî : Äà
Èñïîëüçîâàíèå óêàçàòåëåé C2 : Íåò

Êîððåêöèÿ ñìåùåíèÿ ïðè ÷òåíèè : 6
Ñïîñîáíîñòü ÷èòàòü îáëàñòè Lead-in è Lead-out : Íåò
Çàïîëíåíèå ïðîïóùåííûõ ñýìïëîâ òèøèíîé : Äà
Óäàëåíèå áëîêîâ ñ òèøèíîé â íà÷àëå è êîíöå : Íåò
Ïðè âû÷èñëåíèÿõ CRC èñïîëüçîâàëèñü íóëåâûå ñýìïëû : Äà
Èíòåðôåéñ : Âñòðîåííûé Win32-èíòåðôåéñ äëÿ Win NT/2000

Âûõîäíîé ôîðìàò : Ïîëüçîâàòåëüñêèé êîäèðîâùèê
Âûáðàííûé áèòðåéò : 768 kBit/s
Êà÷åñòâî : Âûñîêèé
Äîáàâëåíèå ID3-òýãà : Íåò
Óòèëèòà ñæàòèÿ : C:\FLAC\John McLaughlin, Carlos Santana - Live In Chicago (1993) [FLAC] {Jazz Door}\Program Files\Exact Audio Copy\Flac\Flac.exe
Äîïîëíèòåëüíûå ïàðàìåòðû : -8 –delete-input-file -o "C:\FLAC\John McLaughlin, Carlos Santana - Live In Chicago (1993) [FLAC] {Jazz Door}\CDImage.flac" -V %s


TOC èçâëå÷¸ííîãî CD

Òðåê | Ñòàðò | Äëèòåëüíîñòü | Íà÷àëüíûé ñåêòîð | Êîíå÷íûé ñåêòîð
––––––––––––––––––––––––––––––––––-
1 | 0:00.00 | 20:05.72 | 0 | 90446
2 | 20:05.72 | 15:47.28 | 90447 | 161499
3 | 35:53.25 | 20:10.57 | 161500 | 252306
4 | 56:04.07 | 19:30.48 | 252307 | 340104


Õàðàêòåðèñòèêè äèàïàçîíà èçâëå÷åíèÿ è ñîîáùåíèÿ îá îøèáêàõ

Âûáðàííûé äèàïàçîí

Èìÿ ôàéëà C:\FLAC\John McLaughlin, Carlos Santana - Live In Chicago (1993) [FLAC] {Jazz Door}\John Mc Laughlin Carlos Santana - Live in Chicago 1974.wav

Ïèêîâûé óðîâåíü 94.5 %
Êà÷åñòâî äèàïàçîíà 100.0 %
CRC òåñòà EDC54114
CRC êîïèè EDC54114
Êîïèðîâàíèå… OK

Îøèáîê íå ïðîèçîøëî


AccurateRip: ñâîäêà

Òðåê 1 òî÷íîå èçâëå÷åíèå (äîâåðèå 2) [6C80CDEF]
Òðåê 2 òî÷íîå èçâëå÷åíèå (äîâåðèå 2) [18B27A54]
Òðåê 3 òî÷íîå èçâëå÷åíèå (äîâåðèå 2) [4E098D2F]
Òðåê 4 òî÷íîå èçâëå÷åíèå (äîâåðèå 2) [A5CA0824]

Âñå òðåêè èçâëå÷åíû òî÷íî

Êîíåö îò÷¸òà


John McLaughlin/Carlos Santana - Live In Chicago (1993) {Jazz Door}


Thank you to the original uploader