Tags
Language
Tags

McCoy Tyner - New York Reunion (1991) {Chesky} **[RE-UP]**

Posted By: TestTickles
McCoy Tyner - New York Reunion (1991) {Chesky} **[RE-UP]**

McCoy Tyner - New York Reunion (1991) {Chesky}
EAC Rip | FLAC with CUE and log | scans | 436 mb
MP3 CBR 320kbps | RAR | 192 mb
Genre: jazz

New York Reunion is a 1991 album by jazz pianist McCoy Tyner. He is joined by Ron Carter (bass), Joe Henderson (tenor sax), and Al Foster (drums). It was recorded in New York City on 3-4 April, 1991. This was released by Chesky.
Pianist McCoy Tyner and tenor-saxophonist Joe Henderson had not recorded together in over two decades when they finally met up for this Chesky CD. With strong assistance from bassist Ron Carter and drummer Al Foster, Tyner and Henderson make for a perfect team on four originals by group members (including the tenor's classic "Recorda Me") and four superior standards. The advanced hard bop music is as rewarding as one would expect.

McCoy Tyner - New York Reunion (1991) {Chesky} **[RE-UP]**

1. Recorda Me (Remember Me)
2. Miss Bea (Dedicated To Mother)
3. What Is This Thing Called Love?
4. My Romance
5. Ask Me Now
6. Beautiful Love
7. A Quick Sketch
8. Home

–-
McCoy Tyner-piano
Joe Henderson-tenor saxophone
Ron Carter-bass
Al Foster-drums

Produced by David Chesky
Recorded by Bob Katz
Recorded at RCA Studio A, New York City on April 3 & 4, 1991

Recorded using a specially modified microphone with all tube MANLEY REFERENCE electronics by David Manley from Vacuum Tube Logic of America.

EAC extraction logfile from 28. May 2006, 9:28 for CD
McCoy Tyner / New York Reunion

Used drive : LITE-ON DVDRW SOHW-1633S Adapter: 0 ID: 0
Read mode : Secure with NO C2, accurate stream, disable cache
Read offset correction : 12
Overread into Lead-In and Lead-Out : No

Used output format : Internal WAV Routines
44.100 Hz; 16 Bit; Stereo

Other options :
Fill up missing offset samples with silence : Yes
Delete leading and trailing silent blocks : No
Installed external ASPI interface


Track 1
Filename D:\FLAC\McCoy Tyner - New York Reunion (1991) [FLAC] {Chesky}\01 - Recorda Me.wav

Pre-gap length 0:00:02.49

Peak level 100.0 %
Track quality 100.0 %
Test CRC 73505161
Copy CRC 73505161
Copy OK

Track 2
Filename D:\FLAC\McCoy Tyner - New York Reunion (1991) [FLAC] {Chesky}\02 - Miss Bea.wav

Peak level 65.5 %
Track quality 99.9 %
Test CRC C1186F7B
Copy CRC C1186F7B
Copy OK

Track 3
Filename D:\FLAC\McCoy Tyner - New York Reunion (1991) [FLAC] {Chesky}\03 - What Is This Thing Called Love .wav

Peak level 100.0 %
Track quality 100.0 %
Test CRC 56783670
Copy CRC 56783670
Copy OK

Track 4
Filename D:\FLAC\McCoy Tyner - New York Reunion (1991) [FLAC] {Chesky}\04 - My Romance.wav

Peak level 69.0 %
Track quality 99.9 %
Test CRC 48D72C5F
Copy CRC 48D72C5F
Copy OK

Track 5
Filename D:\FLAC\McCoy Tyner - New York Reunion (1991) [FLAC] {Chesky}\05 - Ask Me Now.wav

Pre-gap length 0:00:04.29

Peak level 96.8 %
Track quality 100.0 %
Test CRC 7B66A15A
Copy CRC 7B66A15A
Copy OK

Track 6
Filename D:\FLAC\McCoy Tyner - New York Reunion (1991) [FLAC] {Chesky}\06 - Beautiful Love.wav

Pre-gap length 0:00:05.66

Peak level 89.5 %
Track quality 100.0 %
Test CRC B3C421CA
Copy CRC B3C421CA
Copy OK

Track 7
Filename D:\FLAC\McCoy Tyner - New York Reunion (1991) [FLAC] {Chesky}\07 - A Quick Sketch.wav

Pre-gap length 0:00:02.62

Peak level 66.2 %
Track quality 100.0 %
Test CRC 3E0D6D2C
Copy CRC 3E0D6D2C
Copy OK

Track 8
Filename D:\FLAC\McCoy Tyner - New York Reunion (1991) [FLAC] {Chesky}\08 - Home.wav

Pre-gap length 0:00:03.22

Peak level 100.0 %
Track quality 100.0 %
Test CRC 75438CAE
Copy CRC 75438CAE
Copy OK

No errors occured


End of status report


McCoy Tyner - New York Reunion (1991) {Chesky} **[RE-UP]**