Subcategories
Tags
Language
Tags

Mel & Kim - The Singles Box Set [7CD, Deluxe Edition] (2019)

Posted By: JET 1
Mel & Kim - The Singles Box Set [7CD, Deluxe Edition] (2019)

Mel & Kim - The Singles Box Set [7CD, Deluxe Edition] (2019)
EAC Rip | FLAC (Tracks) +CUE, LOG | 3.23 GB | Scans
Genre: Disco, Synth-pop, Italo-Disco, Eurodance | Label: Cherry Pop Records | Catalog Number: PPOPBOX 200

Featuring no less than 72 remastered tracks and many rare and unreleased mixes, this collection serves to highlight the pioneering pop/house crossover sound created especially for Mel & Kim by songwriting and production powerhouse Stock Aitken Waterman and the PWL studio team. ‘Respectable’ became SAW’s first own composition to top the UK charts (they’d merely produced Dead or Alive’s ‘You Spin Me Round’ stomper) and while there are online debates about it, ‘Showing Out’ is widely considered the first ever British house record.
Sisters Melanie and Kim Appleby briefly lit up British pop when they first emerged in late 1986 with the Stock Aitken Waterman-produced ‘Showing Out (Get Fresh at the Weekend)’, becoming a top three smash in the UK and No.1 in Belgium, Germany, Netherlands, Switzerland as well as a No.1 in the US dance listings.
After the global No.1 success of the follow-up ‘Respectable’, the duo were barely out of the tabloids, especially when it emerged that Mel had done some earlier artistic shots where all her clothes had fallen off. The palaver only increased the public’s love for the sisters-next-door duo. All through their success Mel was also privately dealing with malignant paraganglioma, a form of cancer on her liver, and was undergoing treatment on her spine during their FLM album campaign. Mel actually discharged herself from hospital in order to record ‘That’s The Way it is’ and the duo carried on promoting it throughout her visits back and forth for treatment. Mel sadly died suddenly in 1990 leaving Kim to gamely carry on and launch a solo career with the hit ‘Don’t Worry’. She has recently come back into the public eye, popping up co-presenting pop documentaries.
Compiled with the blessing and involvement of Kim Appleby, the Singles Box Set also boasts a 24-page booklet featuring lyrics, discography, new sleeve notes and many classic and rare images. Tay-tay-tay-tay t-t-t-t-tay-tay take a look at the full track listing below.

Exact Audio Copy V1.3 from 2. September 2016

EAC extraction logfile from 2. November 2019, 13:01

Mel & Kim / The Singles Box Set

Used drive : PLEXTOR PX-891SAF Adapter: 1 ID: 0

Read mode : Secure
Utilize accurate stream : Yes
Defeat audio cache : Yes
Make use of C2 pointers : No

Read offset correction : 6
Overread into Lead-In and Lead-Out : No
Fill up missing offset samples with silence : Yes
Delete leading and trailing silent blocks : No
Null samples used in CRC calculations : Yes
Used interface : Native Win32 interface for Win NT & 2000
Gap handling : Appended to previous track

Used output format : User Defined Encoder
Selected bitrate : 1024 kBit/s
Quality : High
Add ID3 tag : No
Command line compressor : C:\Program Files (x86)\Exact Audio Copy\Flac\flac.exe
Additional command line options : -8 -V -T "ARTIST=%artist%" -T "TITLE=%title%" -T "ALBUM=%albumtitle%" -T "DATE=%year%" -T "TRACKNUMBER=%tracknr%" -T "GENRE=%genre%" -T "PERFORMER=%albuminterpret%" -T "COMPOSER=%composer%" %haslyrics%–tag-from-file=LYRICS="%lyricsfile%"%haslyrics% -T "ALBUMARTIST=%albumartist%" -T "DISCNUMBER=%cdnumber%" -T "TOTALDISCS=%totalcds%" -T "TOTALTRACKS=%numtracks%" -T "COMMENT=%comment%" %source% -o %dest%


TOC of the extracted CD

Track | Start | Length | Start sector | End sector
––––––––––––––––––––––––––––-
1 | 0:00.00 | 3:35.04 | 0 | 16128
2 | 3:35.04 | 3:47.46 | 16129 | 33199
3 | 7:22.50 | 7:15.23 | 33200 | 65847
4 | 14:37.73 | 6:29.24 | 65848 | 95046
5 | 21:07.22 | 4:35.62 | 95047 | 115733
6 | 25:43.09 | 4:51.26 | 115734 | 137584
7 | 30:34.35 | 7:22.07 | 137585 | 170741
8 | 37:56.42 | 9:01.04 | 170742 | 211320
9 | 46:57.46 | 3:57.66 | 211321 | 229161
10 | 50:55.37 | 5:45.74 | 229162 | 255110
11 | 56:41.36 | 4:53.51 | 255111 | 277136
12 | 61:35.12 | 4:25.22 | 277137 | 297033
13 | 66:00.34 | 5:47.27 | 297034 | 323085
14 | 71:47.61 | 4:24.00 | 323086 | 342885


Track 1

Filename D:\#cdr\#wav+flac\Mel & Kim - The Singles Box Set\cd 1 - Showing Out\01. Mel & Kim - Showing OUT (Get Fresh At The Weekend).wav

Pre-gap length 0:00:02.00

Peak level 100.0 %
Extraction speed 5.4 X
Track quality 100.0 %
Test CRC 3D610E61
Copy CRC 3D610E61
Track not present in AccurateRip database
Copy OK

Track 2

Filename D:\#cdr\#wav+flac\Mel & Kim - The Singles Box Set\cd 1 - Showing Out\02. Mel & Kim - System (House Mix).wav

Pre-gap length 0:00:00.49

Peak level 100.0 %
Extraction speed 5.9 X
Track quality 100.0 %
Test CRC DF59A283
Copy CRC DF59A283
Track not present in AccurateRip database
Copy OK

Track 3

Filename D:\#cdr\#wav+flac\Mel & Kim - The Singles Box Set\cd 1 - Showing Out\03. Mel & Kim - Showing OUT (Extended Version).wav

Pre-gap length 0:00:00.49

Peak level 100.0 %
Extraction speed 7.2 X
Track quality 100.0 %
Test CRC 1B3242BD
Copy CRC 1B3242BD
Track not present in AccurateRip database
Copy OK

Track 4

Filename D:\#cdr\#wav+flac\Mel & Kim - The Singles Box Set\cd 1 - Showing Out\04. Mel & Kim - Showing OUT (The Mortgage Mix).wav

Pre-gap length 0:00:00.49

Peak level 100.0 %
Extraction speed 7.9 X
Track quality 100.0 %
Test CRC 37C1D7D7
Copy CRC 37C1D7D7
Track not present in AccurateRip database
Copy OK

Track 5

Filename D:\#cdr\#wav+flac\Mel & Kim - The Singles Box Set\cd 1 - Showing Out\05. Mel & Kim - Showing OUT (The Freehold Mix).wav

Pre-gap length 0:00:00.49

Peak level 100.0 %
Extraction speed 8.1 X
Track quality 100.0 %
Test CRC 42961C3F
Copy CRC 42961C3F
Track not present in AccurateRip database
Copy OK

Track 6

Filename D:\#cdr\#wav+flac\Mel & Kim - The Singles Box Set\cd 1 - Showing Out\06. Mel & Kim - Showing OUT (Edit).wav

Pre-gap length 0:00:00.49

Peak level 100.0 %
Extraction speed 8.6 X
Track quality 100.0 %
Test CRC 0D6D4A4F
Copy CRC 0D6D4A4F
Track not present in AccurateRip database
Copy OK

Track 7

Filename D:\#cdr\#wav+flac\Mel & Kim - The Singles Box Set\cd 1 - Showing Out\07. Mel & Kim - System (Garage Vocal).wav

Pre-gap length 0:00:00.50

Peak level 100.0 %
Extraction speed 9.5 X
Track quality 100.0 %
Test CRC 78241EEC
Copy CRC 78241EEC
Track not present in AccurateRip database
Copy OK

Track 8

Filename D:\#cdr\#wav+flac\Mel & Kim - The Singles Box Set\cd 1 - Showing Out\08. Mel & Kim - System (12'' House Mix).wav

Pre-gap length 0:00:00.50

Peak level 100.0 %
Extraction speed 10.3 X
Track quality 100.0 %
Test CRC 2EE310C6
Copy CRC 2EE310C6
Track not present in AccurateRip database
Copy OK

Track 9

Filename D:\#cdr\#wav+flac\Mel & Kim - The Singles Box Set\cd 1 - Showing Out\09. Mel & Kim - System (Alternative Mix).wav

Pre-gap length 0:00:00.50

Peak level 100.0 %
Extraction speed 9.9 X
Track quality 100.0 %
Test CRC 171D51AF
Copy CRC 171D51AF
Track not present in AccurateRip database
Copy OK

Track 10

Filename D:\#cdr\#wav+flac\Mel & Kim - The Singles Box Set\cd 1 - Showing Out\10. Mel & Kim - System (Original 12'' Mix).wav

Pre-gap length 0:00:00.50

Peak level 100.0 %
Extraction speed 10.7 X
Track quality 100.0 %
Test CRC E4618DFF
Copy CRC E4618DFF
Track not present in AccurateRip database
Copy OK

Track 11

Filename D:\#cdr\#wav+flac\Mel & Kim - The Singles Box Set\cd 1 - Showing Out\11. Mel & Kim - System (U.S. Album Edit).wav

Pre-gap length 0:00:00.50

Peak level 100.0 %
Extraction speed 10.9 X
Track quality 100.0 %
Test CRC C3D1E99E
Copy CRC C3D1E99E
Track not present in AccurateRip database
Copy OK

Track 12

Filename D:\#cdr\#wav+flac\Mel & Kim - The Singles Box Set\cd 1 - Showing Out\12. Mel & Kim - System (Dub).wav

Pre-gap length 0:00:00.49

Peak level 100.0 %
Extraction speed 9.2 X
Track quality 99.9 %
Test CRC 66446A87
Copy CRC 66446A87
Track not present in AccurateRip database
Copy OK

Track 13

Filename D:\#cdr\#wav+flac\Mel & Kim - The Singles Box Set\cd 1 - Showing Out\13. Mel & Kim - Showing OUT (Instrumental).wav

Pre-gap length 0:00:00.50

Peak level 100.0 %
Extraction speed 11.7 X
Track quality 100.0 %
Test CRC 4E5F24EB
Copy CRC 4E5F24EB
Track not present in AccurateRip database
Copy OK

Track 14

Filename D:\#cdr\#wav+flac\Mel & Kim - The Singles Box Set\cd 1 - Showing Out\14. Mel & Kim - System (Instrumental).wav

Pre-gap length 0:00:00.50

Peak level 100.0 %
Extraction speed 11.6 X
Track quality 100.0 %
Test CRC 0D2516F6
Copy CRC 0D2516F6
Track not present in AccurateRip database
Copy OK


None of the tracks are present in the AccurateRip database

No errors occurred

End of status report

–– CUETools DB Plugin V2.1.6

[CTDB TOCID: VME4o8E97O2Pm1rCPSo3MTY9_FA-] found
Submit result: VME4o8E97O2Pm1rCPSo3MTY9_FA- has been confirmed
Track | CTDB Status
1 | (7/7) Accurately ripped
2 | (7/7) Accurately ripped
3 | (7/7) Accurately ripped
4 | (7/7) Accurately ripped
5 | (7/7) Accurately ripped
6 | (7/7) Accurately ripped
7 | (7/7) Accurately ripped
8 | (7/7) Accurately ripped
9 | (7/7) Accurately ripped
10 | (7/7) Accurately ripped
11 | (7/7) Accurately ripped
12 | (7/7) Accurately ripped
13 | (7/7) Accurately ripped
14 | (7/7) Accurately ripped


==== Log checksum 5F0A6C2D483073899E8B862168A71F7000D8C58135420633F25CBBF913C99F04 ====

––––––––––––––––––––––––––––––

Exact Audio Copy V1.3 from 2. September 2016

EAC extraction logfile from 2. November 2019, 13:01

Mel & Kim / The Singles Box Set

Used drive : PLEXTOR PX-891SAF Adapter: 1 ID: 0

Read mode : Secure
Utilize accurate stream : Yes
Defeat audio cache : Yes
Make use of C2 pointers : No

Read offset correction : 6
Overread into Lead-In and Lead-Out : No
Fill up missing offset samples with silence : Yes
Delete leading and trailing silent blocks : No
Null samples used in CRC calculations : Yes
Used interface : Native Win32 interface for Win NT & 2000
Gap handling : Appended to previous track

Used output format : User Defined Encoder
Selected bitrate : 1024 kBit/s
Quality : High
Add ID3 tag : No
Command line compressor : C:\Program Files (x86)\Exact Audio Copy\Flac\flac.exe
Additional command line options : -8 -V -T "ARTIST=%artist%" -T "TITLE=%title%" -T "ALBUM=%albumtitle%" -T "DATE=%year%" -T "TRACKNUMBER=%tracknr%" -T "GENRE=%genre%" -T "PERFORMER=%albuminterpret%" -T "COMPOSER=%composer%" %haslyrics%–tag-from-file=LYRICS="%lyricsfile%"%haslyrics% -T "ALBUMARTIST=%albumartist%" -T "DISCNUMBER=%cdnumber%" -T "TOTALDISCS=%totalcds%" -T "TOTALTRACKS=%numtracks%" -T "COMMENT=%comment%" %source% -o %dest%


TOC of the extracted CD

Track | Start | Length | Start sector | End sector
––––––––––––––––––––––––––––-
1 | 0:00.00 | 3:35.04 | 0 | 16128
2 | 3:35.04 | 3:47.46 | 16129 | 33199
3 | 7:22.50 | 7:15.23 | 33200 | 65847
4 | 14:37.73 | 6:29.24 | 65848 | 95046
5 | 21:07.22 | 4:35.62 | 95047 | 115733
6 | 25:43.09 | 4:51.26 | 115734 | 137584
7 | 30:34.35 | 7:22.07 | 137585 | 170741
8 | 37:56.42 | 9:01.04 | 170742 | 211320
9 | 46:57.46 | 3:57.66 | 211321 | 229161
10 | 50:55.37 | 5:45.74 | 229162 | 255110
11 | 56:41.36 | 4:53.51 | 255111 | 277136
12 | 61:35.12 | 4:25.22 | 277137 | 297033
13 | 66:00.34 | 5:47.27 | 297034 | 323085
14 | 71:47.61 | 4:24.00 | 323086 | 342885


Track 1

Filename D:\#cdr\#wav+flac\Mel & Kim - The Singles Box Set\cd 1 - Showing Out\01. Mel & Kim - Showing OUT (Get Fresh At The Weekend).wav

Pre-gap length 0:00:02.00

Peak level 100.0 %
Extraction speed 5.4 X
Track quality 100.0 %
Test CRC 3D610E61
Copy CRC 3D610E61
Track not present in AccurateRip database
Copy OK

Track 2

Filename D:\#cdr\#wav+flac\Mel & Kim - The Singles Box Set\cd 1 - Showing Out\02. Mel & Kim - System (House Mix).wav

Pre-gap length 0:00:00.49

Peak level 100.0 %
Extraction speed 5.9 X
Track quality 100.0 %
Test CRC DF59A283
Copy CRC DF59A283
Track not present in AccurateRip database
Copy OK

Track 3

Filename D:\#cdr\#wav+flac\Mel & Kim - The Singles Box Set\cd 1 - Showing Out\03. Mel & Kim - Showing OUT (Extended Version).wav

Pre-gap length 0:00:00.49

Peak level 100.0 %
Extraction speed 7.2 X
Track quality 100.0 %
Test CRC 1B3242BD
Copy CRC 1B3242BD
Track not present in AccurateRip database
Copy OK

Track 4

Filename D:\#cdr\#wav+flac\Mel & Kim - The Singles Box Set\cd 1 - Showing Out\04. Mel & Kim - Showing OUT (The Mortgage Mix).wav

Pre-gap length 0:00:00.49

Peak level 100.0 %
Extraction speed 7.9 X
Track quality 100.0 %
Test CRC 37C1D7D7
Copy CRC 37C1D7D7
Track not present in AccurateRip database
Copy OK

Track 5

Filename D:\#cdr\#wav+flac\Mel & Kim - The Singles Box Set\cd 1 - Showing Out\05. Mel & Kim - Showing OUT (The Freehold Mix).wav

Pre-gap length 0:00:00.49

Peak level 100.0 %
Extraction speed 8.1 X
Track quality 100.0 %
Test CRC 42961C3F
Copy CRC 42961C3F
Track not present in AccurateRip database
Copy OK

Track 6

Filename D:\#cdr\#wav+flac\Mel & Kim - The Singles Box Set\cd 1 - Showing Out\06. Mel & Kim - Showing OUT (Edit).wav

Pre-gap length 0:00:00.49

Peak level 100.0 %
Extraction speed 8.6 X
Track quality 100.0 %
Test CRC 0D6D4A4F
Copy CRC 0D6D4A4F
Track not present in AccurateRip database
Copy OK

Track 7

Filename D:\#cdr\#wav+flac\Mel & Kim - The Singles Box Set\cd 1 - Showing Out\07. Mel & Kim - System (Garage Vocal).wav

Pre-gap length 0:00:00.50

Peak level 100.0 %
Extraction speed 9.5 X
Track quality 100.0 %
Test CRC 78241EEC
Copy CRC 78241EEC
Track not present in AccurateRip database
Copy OK

Track 8

Filename D:\#cdr\#wav+flac\Mel & Kim - The Singles Box Set\cd 1 - Showing Out\08. Mel & Kim - System (12'' House Mix).wav

Pre-gap length 0:00:00.50

Peak level 100.0 %
Extraction speed 10.3 X
Track quality 100.0 %
Test CRC 2EE310C6
Copy CRC 2EE310C6
Track not present in AccurateRip database
Copy OK

Track 9

Filename D:\#cdr\#wav+flac\Mel & Kim - The Singles Box Set\cd 1 - Showing Out\09. Mel & Kim - System (Alternative Mix).wav

Pre-gap length 0:00:00.50

Peak level 100.0 %
Extraction speed 9.9 X
Track quality 100.0 %
Test CRC 171D51AF
Copy CRC 171D51AF
Track not present in AccurateRip database
Copy OK

Track 10

Filename D:\#cdr\#wav+flac\Mel & Kim - The Singles Box Set\cd 1 - Showing Out\10. Mel & Kim - System (Original 12'' Mix).wav

Pre-gap length 0:00:00.50

Peak level 100.0 %
Extraction speed 10.7 X
Track quality 100.0 %
Test CRC E4618DFF
Copy CRC E4618DFF
Track not present in AccurateRip database
Copy OK

Track 11

Filename D:\#cdr\#wav+flac\Mel & Kim - The Singles Box Set\cd 1 - Showing Out\11. Mel & Kim - System (U.S. Album Edit).wav

Pre-gap length 0:00:00.50

Peak level 100.0 %
Extraction speed 10.9 X
Track quality 100.0 %
Test CRC C3D1E99E
Copy CRC C3D1E99E
Track not present in AccurateRip database
Copy OK

Track 12

Filename D:\#cdr\#wav+flac\Mel & Kim - The Singles Box Set\cd 1 - Showing Out\12. Mel & Kim - System (Dub).wav

Pre-gap length 0:00:00.49

Peak level 100.0 %
Extraction speed 9.2 X
Track quality 99.9 %
Test CRC 66446A87
Copy CRC 66446A87
Track not present in AccurateRip database
Copy OK

Track 13

Filename D:\#cdr\#wav+flac\Mel & Kim - The Singles Box Set\cd 1 - Showing Out\13. Mel & Kim - Showing OUT (Instrumental).wav

Pre-gap length 0:00:00.50

Peak level 100.0 %
Extraction speed 11.7 X
Track quality 100.0 %
Test CRC 4E5F24EB
Copy CRC 4E5F24EB
Track not present in AccurateRip database
Copy OK

Track 14

Filename D:\#cdr\#wav+flac\Mel & Kim - The Singles Box Set\cd 1 - Showing Out\14. Mel & Kim - System (Instrumental).wav

Pre-gap length 0:00:00.50

Peak level 100.0 %
Extraction speed 11.6 X
Track quality 100.0 %
Test CRC 0D2516F6
Copy CRC 0D2516F6
Track not present in AccurateRip database
Copy OK


None of the tracks are present in the AccurateRip database

No errors occurred

End of status report

–– CUETools DB Plugin V2.1.6

[CTDB TOCID: VME4o8E97O2Pm1rCPSo3MTY9_FA-] found
Submit result: VME4o8E97O2Pm1rCPSo3MTY9_FA- has been confirmed
Track | CTDB Status
1 | (7/7) Accurately ripped
2 | (7/7) Accurately ripped
3 | (7/7) Accurately ripped
4 | (7/7) Accurately ripped
5 | (7/7) Accurately ripped
6 | (7/7) Accurately ripped
7 | (7/7) Accurately ripped
8 | (7/7) Accurately ripped
9 | (7/7) Accurately ripped
10 | (7/7) Accurately ripped
11 | (7/7) Accurately ripped
12 | (7/7) Accurately ripped
13 | (7/7) Accurately ripped
14 | (7/7) Accurately ripped


==== Log checksum 5F0A6C2D483073899E8B862168A71F7000D8C58135420633F25CBBF913C99F04 ====

Exact Audio Copy V1.3 from 2. September 2016

EAC extraction logfile from 2. November 2019, 13:32

Mel & Kim / The Singles Box Set

Used drive : PLEXTOR PX-891SAF Adapter: 1 ID: 0

Read mode : Secure
Utilize accurate stream : Yes
Defeat audio cache : Yes
Make use of C2 pointers : No

Read offset correction : 6
Overread into Lead-In and Lead-Out : No
Fill up missing offset samples with silence : Yes
Delete leading and trailing silent blocks : No
Null samples used in CRC calculations : Yes
Used interface : Native Win32 interface for Win NT & 2000
Gap handling : Appended to previous track

Used output format : User Defined Encoder
Selected bitrate : 1024 kBit/s
Quality : High
Add ID3 tag : No
Command line compressor : C:\Program Files (x86)\Exact Audio Copy\Flac\flac.exe
Additional command line options : -8 -V -T "ARTIST=%artist%" -T "TITLE=%title%" -T "ALBUM=%albumtitle%" -T "DATE=%year%" -T "TRACKNUMBER=%tracknr%" -T "GENRE=%genre%" -T "PERFORMER=%albuminterpret%" -T "COMPOSER=%composer%" %haslyrics%–tag-from-file=LYRICS="%lyricsfile%"%haslyrics% -T "ALBUMARTIST=%albumartist%" -T "DISCNUMBER=%cdnumber%" -T "TOTALDISCS=%totalcds%" -T "TOTALTRACKS=%numtracks%" -T "COMMENT=%comment%" %source% -o %dest%


TOC of the extracted CD

Track | Start | Length | Start sector | End sector
––––––––––––––––––––––––––––-
1 | 0:00.00 | 3:22.36 | 0 | 15185
2 | 3:22.36 | 6:18.73 | 15186 | 43608
3 | 9:41.34 | 8:10.19 | 43609 | 80377
4 | 17:51.53 | 7:53.69 | 80378 | 115921
5 | 25:45.47 | 6:17.44 | 115922 | 144240
6 | 32:03.16 | 6:36.23 | 144241 | 173963
7 | 38:39.39 | 6:41.63 | 173964 | 204101
8 | 45:21.27 | 5:47.44 | 204102 | 230170
9 | 51:08.71 | 9:08.58 | 230171 | 271328
10 | 60:17.54 | 6:11.44 | 271329 | 299197
11 | 66:29.23 | 4:09.71 | 299198 | 317943
12 | 70:39.19 | 6:06.52 | 317944 | 345445


Track 1

Filename D:\#cdr\#wav+flac\Mel & Kim - The Singles Box Set\cd 2 - Respectable\01. Mel & Kim - Respectable.wav

Pre-gap length 0:00:02.00

Peak level 100.0 %
Extraction speed 4.1 X
Track quality 99.9 %
Test CRC 6BBDC780
Copy CRC 6BBDC780
Track not present in AccurateRip database
Copy OK

Track 2

Filename D:\#cdr\#wav+flac\Mel & Kim - The Singles Box Set\cd 2 - Respectable\02. Mel & Kim - Respectable (Extended Version).wav

Pre-gap length 0:00:00.50

Peak level 100.0 %
Extraction speed 6.3 X
Track quality 100.0 %
Test CRC 19F7BEA3
Copy CRC 19F7BEA3
Track not present in AccurateRip database
Copy OK

Track 3

Filename D:\#cdr\#wav+flac\Mel & Kim - The Singles Box Set\cd 2 - Respectable\03. Mel & Kim - Respectable (Extra Beats Vocal).wav

Pre-gap length 0:00:00.49

Peak level 99.1 %
Extraction speed 4.8 X
Track quality 99.8 %
Test CRC D266BDCC
Copy CRC D266BDCC
Track not present in AccurateRip database
Copy OK

Track 4

Filename D:\#cdr\#wav+flac\Mel & Kim - The Singles Box Set\cd 2 - Respectable\04. Mel & Kim - Respectable (The Tabloid Mix).wav

Pre-gap length 0:00:00.49

Peak level 100.0 %
Extraction speed 5.1 X
Track quality 99.8 %
Test CRC 527C5C18
Copy CRC 527C5C18
Track not present in AccurateRip database
Copy OK

Track 5

Filename D:\#cdr\#wav+flac\Mel & Kim - The Singles Box Set\cd 2 - Respectable\05. Mel & Kim - Respectable (Shop Mix).wav

Pre-gap length 0:00:00.50

Peak level 100.0 %
Extraction speed 5.9 X
Track quality 99.9 %
Test CRC 833FA525
Copy CRC 833FA525
Track not present in AccurateRip database
Copy OK

Track 6

Filename D:\#cdr\#wav+flac\Mel & Kim - The Singles Box Set\cd 2 - Respectable\06. Mel & Kim - Respectable (Full Album Version).wav

Pre-gap length 0:00:00.49

Peak level 100.0 %
Extraction speed 4.9 X
Track quality 99.8 %
Test CRC 6AA3BDBC
Copy CRC 6AA3BDBC
Track not present in AccurateRip database
Copy OK

Track 7

Filename D:\#cdr\#wav+flac\Mel & Kim - The Singles Box Set\cd 2 - Respectable\07. Mel & Kim - Respectable (Alternative 12'' Mix).wav

Pre-gap length 0:00:00.50

Peak level 100.0 %
Extraction speed 6.0 X
Track quality 99.8 %
Test CRC 678B2335
Copy CRC 678B2335
Track not present in AccurateRip database
Copy OK

Track 8

Filename D:\#cdr\#wav+flac\Mel & Kim - The Singles Box Set\cd 2 - Respectable\08. Mel & Kim - Respectable (Pete Hammond Mix).wav

Pre-gap length 0:00:00.50

Peak level 100.0 %
Extraction speed 5.7 X
Track quality 99.8 %
Test CRC 3BBDF7BF
Copy CRC 3BBDF7BF
Track not present in AccurateRip database
Copy OK

Track 9

Filename D:\#cdr\#wav+flac\Mel & Kim - The Singles Box Set\cd 2 - Respectable\09. Mel & Kim - Respectable (Mega Remix).wav

Pre-gap length 0:00:00.49

Peak level 100.0 %
Extraction speed 7.0 X
Track quality 99.9 %
Test CRC A43A9CD1
Copy CRC A43A9CD1
Track not present in AccurateRip database
Copy OK

Track 10

Filename D:\#cdr\#wav+flac\Mel & Kim - The Singles Box Set\cd 2 - Respectable\10. Mel & Kim - Respectable (Extra Beats Version).wav

Pre-gap length 0:00:00.50

Peak level 99.3 %
Extraction speed 7.7 X
Track quality 99.9 %
Test CRC E392A987
Copy CRC E392A987
Track not present in AccurateRip database
Copy OK

Track 11

Filename D:\#cdr\#wav+flac\Mel & Kim - The Singles Box Set\cd 2 - Respectable\11. Mel & Kim - Respectable (Instrumental).wav

Pre-gap length 0:00:00.50

Peak level 99.1 %
Extraction speed 7.2 X
Track quality 99.9 %
Test CRC 28DDFD46
Copy CRC 28DDFD46
Track not present in AccurateRip database
Copy OK

Track 12

Filename D:\#cdr\#wav+flac\Mel & Kim - The Singles Box Set\cd 2 - Respectable\12. Mel & Kim - Respectable (12'' Instrumental).wav

Pre-gap length 0:00:00.49

Peak level 100.0 %
Extraction speed 6.3 X
Track quality 99.8 %
Test CRC 19482225
Copy CRC 19482225
Track not present in AccurateRip database
Copy OK


None of the tracks are present in the AccurateRip database

No errors occurred

End of status report

–– CUETools DB Plugin V2.1.6

[CTDB TOCID: 1npj0.vAYtKBOvWQlJ04i17kWX4-] found
Submit result: 1npj0.vAYtKBOvWQlJ04i17kWX4- has been confirmed
Track | CTDB Status
1 | (6/6) Accurately ripped
2 | (6/6) Accurately ripped
3 | (6/6) Accurately ripped
4 | (6/6) Accurately ripped
5 | (6/6) Accurately ripped
6 | (6/6) Accurately ripped
7 | (6/6) Accurately ripped
8 | (6/6) Accurately ripped
9 | (6/6) Accurately ripped
10 | (6/6) Accurately ripped
11 | (6/6) Accurately ripped
12 | (6/6) Accurately ripped


==== Log checksum 0D07C41A60564EE5F0ACAA4193B262C446F91A64F3F0D7F53194B813DCBEA86D ====

––––––––––––––––––––––––––––––

Exact Audio Copy V1.3 from 2. September 2016

EAC extraction logfile from 2. November 2019, 13:32

Mel & Kim / The Singles Box Set

Used drive : PLEXTOR PX-891SAF Adapter: 1 ID: 0

Read mode : Secure
Utilize accurate stream : Yes
Defeat audio cache : Yes
Make use of C2 pointers : No

Read offset correction : 6
Overread into Lead-In and Lead-Out : No
Fill up missing offset samples with silence : Yes
Delete leading and trailing silent blocks : No
Null samples used in CRC calculations : Yes
Used interface : Native Win32 interface for Win NT & 2000
Gap handling : Appended to previous track

Used output format : User Defined Encoder
Selected bitrate : 1024 kBit/s
Quality : High
Add ID3 tag : No
Command line compressor : C:\Program Files (x86)\Exact Audio Copy\Flac\flac.exe
Additional command line options : -8 -V -T "ARTIST=%artist%" -T "TITLE=%title%" -T "ALBUM=%albumtitle%" -T "DATE=%year%" -T "TRACKNUMBER=%tracknr%" -T "GENRE=%genre%" -T "PERFORMER=%albuminterpret%" -T "COMPOSER=%composer%" %haslyrics%–tag-from-file=LYRICS="%lyricsfile%"%haslyrics% -T "ALBUMARTIST=%albumartist%" -T "DISCNUMBER=%cdnumber%" -T "TOTALDISCS=%totalcds%" -T "TOTALTRACKS=%numtracks%" -T "COMMENT=%comment%" %source% -o %dest%


TOC of the extracted CD

Track | Start | Length | Start sector | End sector
––––––––––––––––––––––––––––-
1 | 0:00.00 | 3:22.36 | 0 | 15185
2 | 3:22.36 | 6:18.73 | 15186 | 43608
3 | 9:41.34 | 8:10.19 | 43609 | 80377
4 | 17:51.53 | 7:53.69 | 80378 | 115921
5 | 25:45.47 | 6:17.44 | 115922 | 144240
6 | 32:03.16 | 6:36.23 | 144241 | 173963
7 | 38:39.39 | 6:41.63 | 173964 | 204101
8 | 45:21.27 | 5:47.44 | 204102 | 230170
9 | 51:08.71 | 9:08.58 | 230171 | 271328
10 | 60:17.54 | 6:11.44 | 271329 | 299197
11 | 66:29.23 | 4:09.71 | 299198 | 317943
12 | 70:39.19 | 6:06.52 | 317944 | 345445


Track 1

Filename D:\#cdr\#wav+flac\Mel & Kim - The Singles Box Set\cd 2 - Respectable\01. Mel & Kim - Respectable.wav

Pre-gap length 0:00:02.00

Peak level 100.0 %
Extraction speed 4.1 X
Track quality 99.9 %
Test CRC 6BBDC780
Copy CRC 6BBDC780
Track not present in AccurateRip database
Copy OK

Track 2

Filename D:\#cdr\#wav+flac\Mel & Kim - The Singles Box Set\cd 2 - Respectable\02. Mel & Kim - Respectable (Extended Version).wav

Pre-gap length 0:00:00.50

Peak level 100.0 %
Extraction speed 6.3 X
Track quality 100.0 %
Test CRC 19F7BEA3
Copy CRC 19F7BEA3
Track not present in AccurateRip database
Copy OK

Track 3

Filename D:\#cdr\#wav+flac\Mel & Kim - The Singles Box Set\cd 2 - Respectable\03. Mel & Kim - Respectable (Extra Beats Vocal).wav

Pre-gap length 0:00:00.49

Peak level 99.1 %
Extraction speed 4.8 X
Track quality 99.8 %
Test CRC D266BDCC
Copy CRC D266BDCC
Track not present in AccurateRip database
Copy OK

Track 4

Filename D:\#cdr\#wav+flac\Mel & Kim - The Singles Box Set\cd 2 - Respectable\04. Mel & Kim - Respectable (The Tabloid Mix).wav

Pre-gap length 0:00:00.49

Peak level 100.0 %
Extraction speed 5.1 X
Track quality 99.8 %
Test CRC 527C5C18
Copy CRC 527C5C18
Track not present in AccurateRip database
Copy OK

Track 5

Filename D:\#cdr\#wav+flac\Mel & Kim - The Singles Box Set\cd 2 - Respectable\05. Mel & Kim - Respectable (Shop Mix).wav

Pre-gap length 0:00:00.50

Peak level 100.0 %
Extraction speed 5.9 X
Track quality 99.9 %
Test CRC 833FA525
Copy CRC 833FA525
Track not present in AccurateRip database
Copy OK

Track 6

Filename D:\#cdr\#wav+flac\Mel & Kim - The Singles Box Set\cd 2 - Respectable\06. Mel & Kim - Respectable (Full Album Version).wav

Pre-gap length 0:00:00.49

Peak level 100.0 %
Extraction speed 4.9 X
Track quality 99.8 %
Test CRC 6AA3BDBC
Copy CRC 6AA3BDBC
Track not present in AccurateRip database
Copy OK

Track 7

Filename D:\#cdr\#wav+flac\Mel & Kim - The Singles Box Set\cd 2 - Respectable\07. Mel & Kim - Respectable (Alternative 12'' Mix).wav

Pre-gap length 0:00:00.50

Peak level 100.0 %
Extraction speed 6.0 X
Track quality 99.8 %
Test CRC 678B2335
Copy CRC 678B2335
Track not present in AccurateRip database
Copy OK

Track 8

Filename D:\#cdr\#wav+flac\Mel & Kim - The Singles Box Set\cd 2 - Respectable\08. Mel & Kim - Respectable (Pete Hammond Mix).wav

Pre-gap length 0:00:00.50

Peak level 100.0 %
Extraction speed 5.7 X
Track quality 99.8 %
Test CRC 3BBDF7BF
Copy CRC 3BBDF7BF
Track not present in AccurateRip database
Copy OK

Track 9

Filename D:\#cdr\#wav+flac\Mel & Kim - The Singles Box Set\cd 2 - Respectable\09. Mel & Kim - Respectable (Mega Remix).wav

Pre-gap length 0:00:00.49

Peak level 100.0 %
Extraction speed 7.0 X
Track quality 99.9 %
Test CRC A43A9CD1
Copy CRC A43A9CD1
Track not present in AccurateRip database
Copy OK

Track 10

Filename D:\#cdr\#wav+flac\Mel & Kim - The Singles Box Set\cd 2 - Respectable\10. Mel & Kim - Respectable (Extra Beats Version).wav

Pre-gap length 0:00:00.50

Peak level 99.3 %
Extraction speed 7.7 X
Track quality 99.9 %
Test CRC E392A987
Copy CRC E392A987
Track not present in AccurateRip database
Copy OK

Track 11

Filename D:\#cdr\#wav+flac\Mel & Kim - The Singles Box Set\cd 2 - Respectable\11. Mel & Kim - Respectable (Instrumental).wav

Pre-gap length 0:00:00.50

Peak level 99.1 %
Extraction speed 7.2 X
Track quality 99.9 %
Test CRC 28DDFD46
Copy CRC 28DDFD46
Track not present in AccurateRip database
Copy OK

Track 12

Filename D:\#cdr\#wav+flac\Mel & Kim - The Singles Box Set\cd 2 - Respectable\12. Mel & Kim - Respectable (12'' Instrumental).wav

Pre-gap length 0:00:00.49

Peak level 100.0 %
Extraction speed 6.3 X
Track quality 99.8 %
Test CRC 19482225
Copy CRC 19482225
Track not present in AccurateRip database
Copy OK


None of the tracks are present in the AccurateRip database

No errors occurred

End of status report

–– CUETools DB Plugin V2.1.6

[CTDB TOCID: 1npj0.vAYtKBOvWQlJ04i17kWX4-] found
Submit result: 1npj0.vAYtKBOvWQlJ04i17kWX4- has been confirmed
Track | CTDB Status
1 | (6/6) Accurately ripped
2 | (6/6) Accurately ripped
3 | (6/6) Accurately ripped
4 | (6/6) Accurately ripped
5 | (6/6) Accurately ripped
6 | (6/6) Accurately ripped
7 | (6/6) Accurately ripped
8 | (6/6) Accurately ripped
9 | (6/6) Accurately ripped
10 | (6/6) Accurately ripped
11 | (6/6) Accurately ripped
12 | (6/6) Accurately ripped


==== Log checksum 0D07C41A60564EE5F0ACAA4193B262C446F91A64F3F0D7F53194B813DCBEA86D ====

Exact Audio Copy V1.3 from 2. September 2016

EAC extraction logfile from 2. November 2019, 15:17

Mel & Kim / The Singles Box Set

Used drive : PLEXTOR PX-891SAF Adapter: 1 ID: 0

Read mode : Secure
Utilize accurate stream : Yes
Defeat audio cache : Yes
Make use of C2 pointers : No

Read offset correction : 6
Overread into Lead-In and Lead-Out : No
Fill up missing offset samples with silence : Yes
Delete leading and trailing silent blocks : No
Null samples used in CRC calculations : Yes
Used interface : Native Win32 interface for Win NT & 2000
Gap handling : Appended to previous track

Used output format : User Defined Encoder
Selected bitrate : 1024 kBit/s
Quality : High
Add ID3 tag : No
Command line compressor : C:\Program Files (x86)\Exact Audio Copy\Flac\flac.exe
Additional command line options : -8 -V -T "ARTIST=%artist%" -T "TITLE=%title%" -T "ALBUM=%albumtitle%" -T "DATE=%year%" -T "TRACKNUMBER=%tracknr%" -T "GENRE=%genre%" -T "PERFORMER=%albuminterpret%" -T "COMPOSER=%composer%" %haslyrics%–tag-from-file=LYRICS="%lyricsfile%"%haslyrics% -T "ALBUMARTIST=%albumartist%" -T "DISCNUMBER=%cdnumber%" -T "TOTALDISCS=%totalcds%" -T "TOTALTRACKS=%numtracks%" -T "COMMENT=%comment%" %source% -o %dest%


TOC of the extracted CD

Track | Start | Length | Start sector | End sector
––––––––––––––––––––––––––––-
1 | 0:00.00 | 3:33.51 | 0 | 16025
2 | 3:33.51 | 7:53.30 | 16026 | 51530
3 | 11:27.06 | 5:39.20 | 51531 | 76975
4 | 17:06.26 | 6:20.33 | 76976 | 105508
5 | 23:26.59 | 7:26.36 | 105509 | 138994
6 | 30:53.20 | 8:16.45 | 138995 | 176239
7 | 39:09.65 | 4:37.30 | 176240 | 197044
8 | 43:47.20 | 3:52.41 | 197045 | 214485
9 | 47:39.61 | 9:14.54 | 214486 | 256089
10 | 56:54.40 | 9:36.45 | 256090 | 299334
11 | 66:31.10 | 4:47.42 | 299335 | 320901
12 | 71:18.52 | 7:39.44 | 320902 | 355370


Track 1

Filename D:\#cdr\#wav+flac\Mel & Kim - The Singles Box Set\cd 3 - F.L.M\01. Mel & Kim - F.L.M..wav

Pre-gap length 0:00:02.00

Peak level 100.0 %
Extraction speed 5.6 X
Track quality 100.0 %
Test CRC 45DAB0E9
Copy CRC 45DAB0E9
Track not present in AccurateRip database
Copy OK

Track 2

Filename D:\#cdr\#wav+flac\Mel & Kim - The Singles Box Set\cd 3 - F.L.M\02. Mel & Kim - F.L.M. (Extended Version).wav

Pre-gap length 0:00:00.49

Peak level 100.0 %
Extraction speed 6.1 X
Track quality 99.9 %
Test CRC 9036BA65
Copy CRC 9036BA65
Track not present in AccurateRip database
Copy OK

Track 3

Filename D:\#cdr\#wav+flac\Mel & Kim - The Singles Box Set\cd 3 - F.L.M\03. Mel & Kim - F.L.M. (Club Mix).wav

Pre-gap length 0:00:00.50

Peak level 100.0 %
Extraction speed 6.4 X
Track quality 99.9 %
Test CRC 5FE18563
Copy CRC 5FE18563
Track not present in AccurateRip database
Copy OK

Track 4

Filename D:\#cdr\#wav+flac\Mel & Kim - The Singles Box Set\cd 3 - F.L.M\04. Mel & Kim - F.L.M. (Sonic Remix).wav

Pre-gap length 0:00:00.50

Peak level 100.0 %
Extraction speed 7.1 X
Track quality 99.9 %
Test CRC FD7FCC6E
Copy CRC FD7FCC6E
Track not present in AccurateRip database
Copy OK

Track 5

Filename D:\#cdr\#wav+flac\Mel & Kim - The Singles Box Set\cd 3 - F.L.M\05. Mel & Kim - F.L.M. (Auto Mix).wav

Pre-gap length 0:00:00.49

Peak level 100.0 %
Extraction speed 8.8 X
Track quality 100.0 %
Test CRC 928FD2F9
Copy CRC 928FD2F9
Track not present in AccurateRip database
Copy OK

Track 6

Filename D:\#cdr\#wav+flac\Mel & Kim - The Singles Box Set\cd 3 - F.L.M\06. Mel & Kim - F.L.M. (Two Grooves Under One Nation Remix).wav

Pre-gap length 0:00:00.50

Peak level 100.0 %
Extraction speed 9.6 X
Track quality 100.0 %
Test CRC EC49080F
Copy CRC EC49080F
Track not present in AccurateRip database
Copy OK

Track 7

Filename D:\#cdr\#wav+flac\Mel & Kim - The Singles Box Set\cd 3 - F.L.M\07. Mel & Kim - F.L.M. (Two Grooves Under One Nation Dub).wav

Pre-gap length 0:00:00.45

Peak level 100.0 %
Extraction speed 9.5 X
Track quality 100.0 %
Test CRC 74209309
Copy CRC 74209309
Track not present in AccurateRip database
Copy OK

Track 8

Filename D:\#cdr\#wav+flac\Mel & Kim - The Singles Box Set\cd 3 - F.L.M\08. Mel & Kim - F.L.M. (Two Grooves Under One Nation 7'' Mix).wav

Pre-gap length 0:00:00.50

Peak level 100.0 %
Extraction speed 9.7 X
Track quality 100.0 %
Test CRC 94AE5868
Copy CRC 94AE5868
Track not present in AccurateRip database
Copy OK

Track 9

Filename D:\#cdr\#wav+flac\Mel & Kim - The Singles Box Set\cd 3 - F.L.M\09. Mel & Kim - F.L.M. (Phil Harding Mix).wav

Pre-gap length 0:00:00.49

Peak level 100.0 %
Extraction speed 10.9 X
Track quality 100.0 %
Test CRC 8B6BB57E
Copy CRC 8B6BB57E
Track not present in AccurateRip database
Copy OK

Track 10

Filename D:\#cdr\#wav+flac\Mel & Kim - The Singles Box Set\cd 3 - F.L.M\10. Mel & Kim - F.L.M. (Beat Boys Mix).wav

Pre-gap length 0:00:00.50

Peak level 100.0 %
Extraction speed 11.6 X
Track quality 100.0 %
Test CRC C66396EC
Copy CRC C66396EC
Track not present in AccurateRip database
Copy OK

Track 11

Filename D:\#cdr\#wav+flac\Mel & Kim - The Singles Box Set\cd 3 - F.L.M\11. Mel & Kim - F.L.M. (Beat Boys Dub).wav

Pre-gap length 0:00:00.50

Peak level 100.0 %
Extraction speed 11.4 X
Track quality 100.0 %
Test CRC A382D659
Copy CRC A382D659
Track not present in AccurateRip database
Copy OK

Track 12

Filename D:\#cdr\#wav+flac\Mel & Kim - The Singles Box Set\cd 3 - F.L.M\12. Mel & Kim - Showing Out - Respectable (Mega Mix).wav

Pre-gap length 0:00:00.49

Peak level 100.0 %
Extraction speed 12.2 X
Track quality 100.0 %
Test CRC EF55E408
Copy CRC EF55E408
Track not present in AccurateRip database
Copy OK


None of the tracks are present in the AccurateRip database

No errors occurred

End of status report

–– CUETools DB Plugin V2.1.6

[CTDB TOCID: 9fBTG1dpQEWni6i9H_MZLz0Gy5I-] found
Submit result: 9fBTG1dpQEWni6i9H_MZLz0Gy5I- has been confirmed
Track | CTDB Status
1 | (7/7) Accurately ripped
2 | (7/7) Accurately ripped
3 | (7/7) Accurately ripped
4 | (7/7) Accurately ripped
5 | (7/7) Accurately ripped
6 | (7/7) Accurately ripped
7 | (7/7) Accurately ripped
8 | (7/7) Accurately ripped
9 | (7/7) Accurately ripped
10 | (7/7) Accurately ripped
11 | (7/7) Accurately ripped
12 | (7/7) Accurately ripped


==== Log checksum CF11FF74AFD88B84DB3AB8DB05F11DF2430C600177FE3D389F7F0DA8A0753889 ====

––––––––––––––––––––––––––––––

Exact Audio Copy V1.3 from 2. September 2016

EAC extraction logfile from 2. November 2019, 15:17

Mel & Kim / The Singles Box Set

Used drive : PLEXTOR PX-891SAF Adapter: 1 ID: 0

Read mode : Secure
Utilize accurate stream : Yes
Defeat audio cache : Yes
Make use of C2 pointers : No

Read offset correction : 6
Overread into Lead-In and Lead-Out : No
Fill up missing offset samples with silence : Yes
Delete leading and trailing silent blocks : No
Null samples used in CRC calculations : Yes
Used interface : Native Win32 interface for Win NT & 2000
Gap handling : Appended to previous track

Used output format : User Defined Encoder
Selected bitrate : 1024 kBit/s
Quality : High
Add ID3 tag : No
Command line compressor : C:\Program Files (x86)\Exact Audio Copy\Flac\flac.exe
Additional command line options : -8 -V -T "ARTIST=%artist%" -T "TITLE=%title%" -T "ALBUM=%albumtitle%" -T "DATE=%year%" -T "TRACKNUMBER=%tracknr%" -T "GENRE=%genre%" -T "PERFORMER=%albuminterpret%" -T "COMPOSER=%composer%" %haslyrics%–tag-from-file=LYRICS="%lyricsfile%"%haslyrics% -T "ALBUMARTIST=%albumartist%" -T "DISCNUMBER=%cdnumber%" -T "TOTALDISCS=%totalcds%" -T "TOTALTRACKS=%numtracks%" -T "COMMENT=%comment%" %source% -o %dest%


TOC of the extracted CD

Track | Start | Length | Start sector | End sector
––––––––––––––––––––––––––––-
1 | 0:00.00 | 3:33.51 | 0 | 16025
2 | 3:33.51 | 7:53.30 | 16026 | 51530
3 | 11:27.06 | 5:39.20 | 51531 | 76975
4 | 17:06.26 | 6:20.33 | 76976 | 105508
5 | 23:26.59 | 7:26.36 | 105509 | 138994
6 | 30:53.20 | 8:16.45 | 138995 | 176239
7 | 39:09.65 | 4:37.30 | 176240 | 197044
8 | 43:47.20 | 3:52.41 | 197045 | 214485
9 | 47:39.61 | 9:14.54 | 214486 | 256089
10 | 56:54.40 | 9:36.45 | 256090 | 299334
11 | 66:31.10 | 4:47.42 | 299335 | 320901
12 | 71:18.52 | 7:39.44 | 320902 | 355370


Track 1

Filename D:\#cdr\#wav+flac\Mel & Kim - The Singles Box Set\cd 3 - F.L.M\01. Mel & Kim - F.L.M..wav

Pre-gap length 0:00:02.00

Peak level 100.0 %
Extraction speed 5.6 X
Track quality 100.0 %
Test CRC 45DAB0E9
Copy CRC 45DAB0E9
Track not present in AccurateRip database
Copy OK

Track 2

Filename D:\#cdr\#wav+flac\Mel & Kim - The Singles Box Set\cd 3 - F.L.M\02. Mel & Kim - F.L.M. (Extended Version).wav

Pre-gap length 0:00:00.49

Peak level 100.0 %
Extraction speed 6.1 X
Track quality 99.9 %
Test CRC 9036BA65
Copy CRC 9036BA65
Track not present in AccurateRip database
Copy OK

Track 3

Filename D:\#cdr\#wav+flac\Mel & Kim - The Singles Box Set\cd 3 - F.L.M\03. Mel & Kim - F.L.M. (Club Mix).wav

Pre-gap length 0:00:00.50

Peak level 100.0 %
Extraction speed 6.4 X
Track quality 99.9 %
Test CRC 5FE18563
Copy CRC 5FE18563
Track not present in AccurateRip database
Copy OK

Track 4

Filename D:\#cdr\#wav+flac\Mel & Kim - The Singles Box Set\cd 3 - F.L.M\04. Mel & Kim - F.L.M. (Sonic Remix).wav

Pre-gap length 0:00:00.50

Peak level 100.0 %
Extraction speed 7.1 X
Track quality 99.9 %
Test CRC FD7FCC6E
Copy CRC FD7FCC6E
Track not present in AccurateRip database
Copy OK

Track 5

Filename D:\#cdr\#wav+flac\Mel & Kim - The Singles Box Set\cd 3 - F.L.M\05. Mel & Kim - F.L.M. (Auto Mix).wav

Pre-gap length 0:00:00.49

Peak level 100.0 %
Extraction speed 8.8 X
Track quality 100.0 %
Test CRC 928FD2F9
Copy CRC 928FD2F9
Track not present in AccurateRip database
Copy OK

Track 6

Filename D:\#cdr\#wav+flac\Mel & Kim - The Singles Box Set\cd 3 - F.L.M\06. Mel & Kim - F.L.M. (Two Grooves Under One Nation Remix).wav

Pre-gap length 0:00:00.50

Peak level 100.0 %
Extraction speed 9.6 X
Track quality 100.0 %
Test CRC EC49080F
Copy CRC EC49080F
Track not present in AccurateRip database
Copy OK

Track 7

Filename D:\#cdr\#wav+flac\Mel & Kim - The Singles Box Set\cd 3 - F.L.M\07. Mel & Kim - F.L.M. (Two Grooves Under One Nation Dub).wav

Pre-gap length 0:00:00.45

Peak level 100.0 %
Extraction speed 9.5 X
Track quality 100.0 %
Test CRC 74209309
Copy CRC 74209309
Track not present in AccurateRip database
Copy OK

Track 8

Filename D:\#cdr\#wav+flac\Mel & Kim - The Singles Box Set\cd 3 - F.L.M\08. Mel & Kim - F.L.M. (Two Grooves Under One Nation 7'' Mix).wav

Pre-gap length 0:00:00.50

Peak level 100.0 %
Extraction speed 9.7 X
Track quality 100.0 %
Test CRC 94AE5868
Copy CRC 94AE5868
Track not present in AccurateRip database
Copy OK

Track 9

Filename D:\#cdr\#wav+flac\Mel & Kim - The Singles Box Set\cd 3 - F.L.M\09. Mel & Kim - F.L.M. (Phil Harding Mix).wav

Pre-gap length 0:00:00.49

Peak level 100.0 %
Extraction speed 10.9 X
Track quality 100.0 %
Test CRC 8B6BB57E
Copy CRC 8B6BB57E
Track not present in AccurateRip database
Copy OK

Track 10

Filename D:\#cdr\#wav+flac\Mel & Kim - The Singles Box Set\cd 3 - F.L.M\10. Mel & Kim - F.L.M. (Beat Boys Mix).wav

Pre-gap length 0:00:00.50

Peak level 100.0 %
Extraction speed 11.6 X
Track quality 100.0 %
Test CRC C66396EC
Copy CRC C66396EC
Track not present in AccurateRip database
Copy OK

Track 11

Filename D:\#cdr\#wav+flac\Mel & Kim - The Singles Box Set\cd 3 - F.L.M\11. Mel & Kim - F.L.M. (Beat Boys Dub).wav

Pre-gap length 0:00:00.50

Peak level 100.0 %
Extraction speed 11.4 X
Track quality 100.0 %
Test CRC A382D659
Copy CRC A382D659
Track not present in AccurateRip database
Copy OK

Track 12

Filename D:\#cdr\#wav+flac\Mel & Kim - The Singles Box Set\cd 3 - F.L.M\12. Mel & Kim - Showing Out - Respectable (Mega Mix).wav

Pre-gap length 0:00:00.49

Peak level 100.0 %
Extraction speed 12.2 X
Track quality 100.0 %
Test CRC EF55E408
Copy CRC EF55E408
Track not present in AccurateRip database
Copy OK


None of the tracks are present in the AccurateRip database

No errors occurred

End of status report

–– CUETools DB Plugin V2.1.6

[CTDB TOCID: 9fBTG1dpQEWni6i9H_MZLz0Gy5I-] found
Submit result: 9fBTG1dpQEWni6i9H_MZLz0Gy5I- has been confirmed
Track | CTDB Status
1 | (7/7) Accurately ripped
2 | (7/7) Accurately ripped
3 | (7/7) Accurately ripped
4 | (7/7) Accurately ripped
5 | (7/7) Accurately ripped
6 | (7/7) Accurately ripped
7 | (7/7) Accurately ripped
8 | (7/7) Accurately ripped
9 | (7/7) Accurately ripped
10 | (7/7) Accurately ripped
11 | (7/7) Accurately ripped
12 | (7/7) Accurately ripped


==== Log checksum CF11FF74AFD88B84DB3AB8DB05F11DF2430C600177FE3D389F7F0DA8A0753889 ====

Exact Audio Copy V1.3 from 2. September 2016

EAC extraction logfile from 2. November 2019, 15:40

Mel & Kim / The Singles Box Set

Used drive : PLEXTOR PX-891SAF Adapter: 1 ID: 0

Read mode : Secure
Utilize accurate stream : Yes
Defeat audio cache : Yes
Make use of C2 pointers : No

Read offset correction : 6
Overread into Lead-In and Lead-Out : No
Fill up missing offset samples with silence : Yes
Delete leading and trailing silent blocks : No
Null samples used in CRC calculations : Yes
Used interface : Native Win32 interface for Win NT & 2000
Gap handling : Appended to previous track

Used output format : User Defined Encoder
Selected bitrate : 1024 kBit/s
Quality : High
Add ID3 tag : No
Command line compressor : C:\Program Files (x86)\Exact Audio Copy\Flac\flac.exe
Additional command line options : -8 -V -T "ARTIST=%artist%" -T "TITLE=%title%" -T "ALBUM=%albumtitle%" -T "DATE=%year%" -T "TRACKNUMBER=%tracknr%" -T "GENRE=%genre%" -T "PERFORMER=%albuminterpret%" -T "COMPOSER=%composer%" %haslyrics%–tag-from-file=LYRICS="%lyricsfile%"%haslyrics% -T "ALBUMARTIST=%albumartist%" -T "DISCNUMBER=%cdnumber%" -T "TOTALDISCS=%totalcds%" -T "TOTALTRACKS=%numtracks%" -T "COMMENT=%comment%" %source% -o %dest%


TOC of the extracted CD

Track | Start | Length | Start sector | End sector
––––––––––––––––––––––––––––-
1 | 0:00.00 | 2:52.55 | 0 | 12954
2 | 2:52.55 | 3:57.44 | 12955 | 30773
3 | 6:50.24 | 5:58.60 | 30774 | 57683
4 | 12:49.09 | 6:46.64 | 57684 | 88197
5 | 19:35.73 | 5:42.28 | 88198 | 113875
6 | 25:18.26 | 6:10.64 | 113876 | 141689
7 | 31:29.15 | 3:45.51 | 141690 | 158615
8 | 35:14.66 | 5:50.33 | 158616 | 184898
9 | 41:05.24 | 7:13.57 | 184899 | 217430
10 | 48:19.06 | 3:34.06 | 217431 | 233486
11 | 51:53.12 | 6:43.64 | 233487 | 263775
12 | 58:37.01 | 3:39.55 | 263776 | 280255
13 | 62:16.56 | 3:39.43 | 280256 | 296723
14 | 65:56.24 | 3:33.40 | 296724 | 312738


Track 1

Filename D:\#cdr\#wav+flac\Mel & Kim - The Singles Box Set\cd 4 - I'm The One Who Really Loves You\01. Mel & Kim - I'm The One Who Really Loves You [Pop Radio 7'' Mix].wav

Pre-gap length 0:00:02.00

Peak level 100.0 %
Extraction speed 4.9 X
Track quality 100.0 %
Test CRC 4E1FD855
Copy CRC 4E1FD855
Track not present in AccurateRip database
Copy OK

Track 2

Filename D:\#cdr\#wav+flac\Mel & Kim - The Singles Box Set\cd 4 - I'm The One Who Really Loves You\02. Mel & Kim - I'm The One Who Really Loves You [Hip Hop Radio Mix].wav

Pre-gap length 0:00:00.49

Peak level 100.0 %
Extraction speed 5.5 X
Track quality 100.0 %
Test CRC 8398DEA3
Copy CRC 8398DEA3
Track not present in AccurateRip database
Copy OK

Track 3

Filename D:\#cdr\#wav+flac\Mel & Kim - The Singles Box Set\cd 4 - I'm The One Who Really Loves You\03. Mel & Kim - I'm The One Who Really Loves You [Stardom Groove Club Mix].wav

Pre-gap length 0:00:00.49

Peak level 100.0 %
Extraction speed 6.3 X
Track quality 100.0 %
Test CRC 6D6B3F99
Copy CRC 6D6B3F99
Track not present in AccurateRip database
Copy OK

Track 4

Filename D:\#cdr\#wav+flac\Mel & Kim - The Singles Box Set\cd 4 - I'm The One Who Really Loves You\04. Mel & Kim - I'm The One Who Really Loves You [Kickin' Live Mix].wav

Pre-gap length 0:00:00.50

Peak level 100.0 %
Extraction speed 7.0 X
Track quality 100.0 %
Test CRC 48E672F6
Copy CRC 48E672F6
Track not present in AccurateRip database
Copy OK

Track 5

Filename D:\#cdr\#wav+flac\Mel & Kim - The Singles Box Set\cd 4 - I'm The One Who Really Loves You\05. Mel & Kim - I'm The One Who Really Loves You [Groove Dub].wav

Pre-gap length 0:00:00.50

Peak level 100.0 %
Extraction speed 7.5 X
Track quality 100.0 %
Test CRC F6A34D96
Copy CRC F6A34D96
Track not present in AccurateRip database
Copy OK

Track 6

Filename D:\#cdr\#wav+flac\Mel & Kim - The Singles Box Set\cd 4 - I'm The One Who Really Loves You\06. Mel & Kim - I'm The One Who Really Loves You [Done Properly Dub].wav

Pre-gap length 0:00:00.49

Peak level 99.9 %
Extraction speed 7.1 X
Track quality 99.9 %
Test CRC 9BE3ED98
Copy CRC 9BE3ED98
Track not present in AccurateRip database
Copy OK

Track 7

Filename D:\#cdr\#wav+flac\Mel & Kim - The Singles Box Set\cd 4 - I'm The One Who Really Loves You\07. Mel & Kim - I'm The One Who Really Loves You [Pop Radio Mix].wav

Pre-gap length 0:00:00.50

Peak level 100.0 %
Extraction speed 5.8 X
Track quality 99.9 %
Test CRC 64797BC5
Copy CRC 64797BC5
Track not present in AccurateRip database
Copy OK

Track 8

Filename D:\#cdr\#wav+flac\Mel & Kim - The Singles Box Set\cd 4 - I'm The One Who Really Loves You\08. Mel & Kim - I'm The One Who Really Loves You [Chicago Club Mix].wav

Pre-gap length 0:00:00.50

Peak level 100.0 %
Extraction speed 8.5 X
Track quality 100.0 %
Test CRC D1A0B0A8
Copy CRC D1A0B0A8
Track not present in AccurateRip database
Copy OK

Track 9

Filename D:\#cdr\#wav+flac\Mel & Kim - The Singles Box Set\cd 4 - I'm The One Who Really Loves You\09. Mel & Kim - I'm The One Who Really Loves You [Chicago Dubstrumental].wav

Pre-gap length 0:00:00.50

Peak level 100.0 %
Extraction speed 8.1 X
Track quality 99.9 %
Test CRC A79D45A7
Copy CRC A79D45A7
Track not present in AccurateRip database
Copy OK

Track 10

Filename D:\#cdr\#wav+flac\Mel & Kim - The Singles Box Set\cd 4 - I'm The One Who Really Loves You\10. Mel & Kim - I'm The One Who Really Loves You [Chicago Radio Mix].wav

Pre-gap length 0:00:00.50

Peak level 100.0 %
Extraction speed 8.3 X
Track quality 100.0 %
Test CRC 8807B091
Copy CRC 8807B091
Track not present in AccurateRip database
Copy OK

Track 11

Filename D:\#cdr\#wav+flac\Mel & Kim - The Singles Box Set\cd 4 - I'm The One Who Really Loves You\11. Mel & Kim - I'm The One Who Really Loves You [Yoyo's 12'' Mix].wav

Pre-gap length 0:00:00.50

Peak level 100.0 %
Extraction speed 9.5 X
Track quality 100.0 %
Test CRC 2CBBC1E3
Copy CRC 2CBBC1E3
Track not present in AccurateRip database
Copy OK

Track 12

Filename D:\#cdr\#wav+flac\Mel & Kim - The Singles Box Set\cd 4 - I'm The One Who Really Loves You\12. Mel & Kim - I'm The One Who Really Loves You [Original Mix].wav

Pre-gap length 0:00:00.49

Peak level 99.7 %
Extraction speed 7.5 X
Track quality 99.9 %
Test CRC 50B7A7D0
Copy CRC 50B7A7D0
Track not present in AccurateRip database
Copy OK

Track 13

Filename D:\#cdr\#wav+flac\Mel & Kim - The Singles Box Set\cd 4 - I'm The One Who Really Loves You\13. Mel & Kim - I'm The One Who Really Loves You [Alternative Mix].wav

Pre-gap length 0:00:00.49

Peak level 99.2 %
Extraction speed 7.9 X
Track quality 99.9 %
Test CRC 3D1A84A5
Copy CRC 3D1A84A5
Track not present in AccurateRip database
Copy OK

Track 14

Filename D:\#cdr\#wav+flac\Mel & Kim - The Singles Box Set\cd 4 - I'm The One Who Really Loves You\14. Mel & Kim - I'm The One Who Really Loves You [Instrumental].wav

Pre-gap length 0:00:00.49

Peak level 100.0 %
Extraction speed 5.8 X
Track quality 99.8 %
Test CRC 5424142A
Copy CRC 5424142A
Track not present in AccurateRip database
Copy OK


None of the tracks are present in the AccurateRip database

No errors occurred

End of status report

–– CUETools DB Plugin V2.1.6

[CTDB TOCID: 8NQJvqhQB8rfiPczd3bqH_NY2rs-] found
Submit result: 8NQJvqhQB8rfiPczd3bqH_NY2rs- has been confirmed
Track | CTDB Status
1 | (6/6) Accurately ripped
2 | (6/6) Accurately ripped
3 | (6/6) Accurately ripped
4 | (6/6) Accurately ripped
5 | (6/6) Accurately ripped
6 | (6/6) Accurately ripped
7 | (6/6) Accurately ripped
8 | (6/6) Accurately ripped
9 | (6/6) Accurately ripped
10 | (6/6) Accurately ripped
11 | (6/6) Accurately ripped
12 | (6/6) Accurately ripped
13 | (6/6) Accurately ripped
14 | (5/6) Accurately ripped


==== Log checksum 1E4134E0A0A9F73407893DC74AEC9469A9D3B0C03C3937234CCD2AE17207D3A9 ====

––––––––––––––––––––––––––––––

Exact Audio Copy V1.3 from 2. September 2016

EAC extraction logfile from 2. November 2019, 15:40

Mel & Kim / The Singles Box Set

Used drive : PLEXTOR PX-891SAF Adapter: 1 ID: 0

Read mode : Secure
Utilize accurate stream : Yes
Defeat audio cache : Yes
Make use of C2 pointers : No

Read offset correction : 6
Overread into Lead-In and Lead-Out : No
Fill up missing offset samples with silence : Yes
Delete leading and trailing silent blocks : No
Null samples used in CRC calculations : Yes
Used interface : Native Win32 interface for Win NT & 2000
Gap handling : Appended to previous track

Used output format : User Defined Encoder
Selected bitrate : 1024 kBit/s
Quality : High
Add ID3 tag : No
Command line compressor : C:\Program Files (x86)\Exact Audio Copy\Flac\flac.exe
Additional command line options : -8 -V -T "ARTIST=%artist%" -T "TITLE=%title%" -T "ALBUM=%albumtitle%" -T "DATE=%year%" -T "TRACKNUMBER=%tracknr%" -T "GENRE=%genre%" -T "PERFORMER=%albuminterpret%" -T "COMPOSER=%composer%" %haslyrics%–tag-from-file=LYRICS="%lyricsfile%"%haslyrics% -T "ALBUMARTIST=%albumartist%" -T "DISCNUMBER=%cdnumber%" -T "TOTALDISCS=%totalcds%" -T "TOTALTRACKS=%numtracks%" -T "COMMENT=%comment%" %source% -o %dest%


TOC of the extracted CD

Track | Start | Length | Start sector | End sector
––––––––––––––––––––––––––––-
1 | 0:00.00 | 2:52.55 | 0 | 12954
2 | 2:52.55 | 3:57.44 | 12955 | 30773
3 | 6:50.24 | 5:58.60 | 30774 | 57683
4 | 12:49.09 | 6:46.64 | 57684 | 88197
5 | 19:35.73 | 5:42.28 | 88198 | 113875
6 | 25:18.26 | 6:10.64 | 113876 | 141689
7 | 31:29.15 | 3:45.51 | 141690 | 158615
8 | 35:14.66 | 5:50.33 | 158616 | 184898
9 | 41:05.24 | 7:13.57 | 184899 | 217430
10 | 48:19.06 | 3:34.06 | 217431 | 233486
11 | 51:53.12 | 6:43.64 | 233487 | 263775
12 | 58:37.01 | 3:39.55 | 263776 | 280255
13 | 62:16.56 | 3:39.43 | 280256 | 296723
14 | 65:56.24 | 3:33.40 | 296724 | 312738


Track 1

Filename D:\#cdr\#wav+flac\Mel & Kim - The Singles Box Set\cd 4 - I'm The One Who Really Loves You\01. Mel & Kim - I'm The One Who Really Loves You [Pop Radio 7'' Mix].wav

Pre-gap length 0:00:02.00

Peak level 100.0 %
Extraction speed 4.9 X
Track quality 100.0 %
Test CRC 4E1FD855
Copy CRC 4E1FD855
Track not present in AccurateRip database
Copy OK

Track 2

Filename D:\#cdr\#wav+flac\Mel & Kim - The Singles Box Set\cd 4 - I'm The One Who Really Loves You\02. Mel & Kim - I'm The One Who Really Loves You [Hip Hop Radio Mix].wav

Pre-gap length 0:00:00.49

Peak level 100.0 %
Extraction speed 5.5 X
Track quality 100.0 %
Test CRC 8398DEA3
Copy CRC 8398DEA3
Track not present in AccurateRip database
Copy OK

Track 3

Filename D:\#cdr\#wav+flac\Mel & Kim - The Singles Box Set\cd 4 - I'm The One Who Really Loves You\03. Mel & Kim - I'm The One Who Really Loves You [Stardom Groove Club Mix].wav

Pre-gap length 0:00:00.49

Peak level 100.0 %
Extraction speed 6.3 X
Track quality 100.0 %
Test CRC 6D6B3F99
Copy CRC 6D6B3F99
Track not present in AccurateRip database
Copy OK

Track 4

Filename D:\#cdr\#wav+flac\Mel & Kim - The Singles Box Set\cd 4 - I'm The One Who Really Loves You\04. Mel & Kim - I'm The One Who Really Loves You [Kickin' Live Mix].wav

Pre-gap length 0:00:00.50

Peak level 100.0 %
Extraction speed 7.0 X
Track quality 100.0 %
Test CRC 48E672F6
Copy CRC 48E672F6
Track not present in AccurateRip database
Copy OK

Track 5

Filename D:\#cdr\#wav+flac\Mel & Kim - The Singles Box Set\cd 4 - I'm The One Who Really Loves You\05. Mel & Kim - I'm The One Who Really Loves You [Groove Dub].wav

Pre-gap length 0:00:00.50

Peak level 100.0 %
Extraction speed 7.5 X
Track quality 100.0 %
Test CRC F6A34D96
Copy CRC F6A34D96
Track not present in AccurateRip database
Copy OK

Track 6

Filename D:\#cdr\#wav+flac\Mel & Kim - The Singles Box Set\cd 4 - I'm The One Who Really Loves You\06. Mel & Kim - I'm The One Who Really Loves You [Done Properly Dub].wav

Pre-gap length 0:00:00.49

Peak level 99.9 %
Extraction speed 7.1 X
Track quality 99.9 %
Test CRC 9BE3ED98
Copy CRC 9BE3ED98
Track not present in AccurateRip database
Copy OK

Track 7

Filename D:\#cdr\#wav+flac\Mel & Kim - The Singles Box Set\cd 4 - I'm The One Who Really Loves You\07. Mel & Kim - I'm The One Who Really Loves You [Pop Radio Mix].wav

Pre-gap length 0:00:00.50

Peak level 100.0 %
Extraction speed 5.8 X
Track quality 99.9 %
Test CRC 64797BC5
Copy CRC 64797BC5
Track not present in AccurateRip database
Copy OK

Track 8

Filename D:\#cdr\#wav+flac\Mel & Kim - The Singles Box Set\cd 4 - I'm The One Who Really Loves You\08. Mel & Kim - I'm The One Who Really Loves You [Chicago Club Mix].wav

Pre-gap length 0:00:00.50

Peak level 100.0 %
Extraction speed 8.5 X
Track quality 100.0 %
Test CRC D1A0B0A8
Copy CRC D1A0B0A8
Track not present in AccurateRip database
Copy OK

Track 9

Filename D:\#cdr\#wav+flac\Mel & Kim - The Singles Box Set\cd 4 - I'm The One Who Really Loves You\09. Mel & Kim - I'm The One Who Really Loves You [Chicago Dubstrumental].wav

Pre-gap length 0:00:00.50

Peak level 100.0 %
Extraction speed 8.1 X
Track quality 99.9 %
Test CRC A79D45A7
Copy CRC A79D45A7
Track not present in AccurateRip database
Copy OK

Track 10

Filename D:\#cdr\#wav+flac\Mel & Kim - The Singles Box Set\cd 4 - I'm The One Who Really Loves You\10. Mel & Kim - I'm The One Who Really Loves You [Chicago Radio Mix].wav

Pre-gap length 0:00:00.50

Peak level 100.0 %
Extraction speed 8.3 X
Track quality 100.0 %
Test CRC 8807B091
Copy CRC 8807B091
Track not present in AccurateRip database
Copy OK

Track 11

Filename D:\#cdr\#wav+flac\Mel & Kim - The Singles Box Set\cd 4 - I'm The One Who Really Loves You\11. Mel & Kim - I'm The One Who Really Loves You [Yoyo's 12'' Mix].wav

Pre-gap length 0:00:00.50

Peak level 100.0 %
Extraction speed 9.5 X
Track quality 100.0 %
Test CRC 2CBBC1E3
Copy CRC 2CBBC1E3
Track not present in AccurateRip database
Copy OK

Track 12

Filename D:\#cdr\#wav+flac\Mel & Kim - The Singles Box Set\cd 4 - I'm The One Who Really Loves You\12. Mel & Kim - I'm The One Who Really Loves You [Original Mix].wav

Pre-gap length 0:00:00.49

Peak level 99.7 %
Extraction speed 7.5 X
Track quality 99.9 %
Test CRC 50B7A7D0
Copy CRC 50B7A7D0
Track not present in AccurateRip database
Copy OK

Track 13

Filename D:\#cdr\#wav+flac\Mel & Kim - The Singles Box Set\cd 4 - I'm The One Who Really Loves You\13. Mel & Kim - I'm The One Who Really Loves You [Alternative Mix].wav

Pre-gap length 0:00:00.49

Peak level 99.2 %
Extraction speed 7.9 X
Track quality 99.9 %
Test CRC 3D1A84A5
Copy CRC 3D1A84A5
Track not present in AccurateRip database
Copy OK

Track 14

Filename D:\#cdr\#wav+flac\Mel & Kim - The Singles Box Set\cd 4 - I'm The One Who Really Loves You\14. Mel & Kim - I'm The One Who Really Loves You [Instrumental].wav

Pre-gap length 0:00:00.49

Peak level 100.0 %
Extraction speed 5.8 X
Track quality 99.8 %
Test CRC 5424142A
Copy CRC 5424142A
Track not present in AccurateRip database
Copy OK


None of the tracks are present in the AccurateRip database

No errors occurred

End of status report

–– CUETools DB Plugin V2.1.6

[CTDB TOCID: 8NQJvqhQB8rfiPczd3bqH_NY2rs-] found
Submit result: 8NQJvqhQB8rfiPczd3bqH_NY2rs- has been confirmed
Track | CTDB Status
1 | (6/6) Accurately ripped
2 | (6/6) Accurately ripped
3 | (6/6) Accurately ripped
4 | (6/6) Accurately ripped
5 | (6/6) Accurately ripped
6 | (6/6) Accurately ripped
7 | (6/6) Accurately ripped
8 | (6/6) Accurately ripped
9 | (6/6) Accurately ripped
10 | (6/6) Accurately ripped
11 | (6/6) Accurately ripped
12 | (6/6) Accurately ripped
13 | (6/6) Accurately ripped
14 | (5/6) Accurately ripped


==== Log checksum 1E4134E0A0A9F73407893DC74AEC9469A9D3B0C03C3937234CCD2AE17207D3A9 ====

Exact Audio Copy V1.3 from 2. September 2016

EAC extraction logfile from 2. November 2019, 17:38

Mel & Kim / The Singles Box Set

Used drive : PLEXTOR PX-891SAF Adapter: 1 ID: 0

Read mode : Secure
Utilize accurate stream : Yes
Defeat audio cache : Yes
Make use of C2 pointers : No

Read offset correction : 6
Overread into Lead-In and Lead-Out : No
Fill up missing offset samples with silence : Yes
Delete leading and trailing silent blocks : No
Null samples used in CRC calculations : Yes
Used interface : Native Win32 interface for Win NT & 2000
Gap handling : Appended to previous track

Used output format : User Defined Encoder
Selected bitrate : 1024 kBit/s
Quality : High
Add ID3 tag : No
Command line compressor : C:\Program Files (x86)\Exact Audio Copy\Flac\flac.exe
Additional command line options : -8 -V -T "ARTIST=%artist%" -T "TITLE=%title%" -T "ALBUM=%albumtitle%" -T "DATE=%year%" -T "TRACKNUMBER=%tracknr%" -T "GENRE=%genre%" -T "PERFORMER=%albuminterpret%" -T "COMPOSER=%composer%" %haslyrics%–tag-from-file=LYRICS="%lyricsfile%"%haslyrics% -T "ALBUMARTIST=%albumartist%" -T "DISCNUMBER=%cdnumber%" -T "TOTALDISCS=%totalcds%" -T "TOTALTRACKS=%numtracks%" -T "COMMENT=%comment%" %source% -o %dest%


TOC of the extracted CD

Track | Start | Length | Start sector | End sector
––––––––––––––––––––––––––––-
1 | 0:00.00 | 3:26.42 | 0 | 15491
2 | 3:26.42 | 3:26.39 | 15492 | 30980
3 | 6:53.06 | 6:48.55 | 30981 | 61635
4 | 13:41.61 | 6:43.06 | 61636 | 91866
5 | 20:24.67 | 7:39.37 | 91867 | 126328
6 | 28:04.29 | 4:30.62 | 126329 | 146640
7 | 32:35.16 | 3:32.44 | 146641 | 162584
8 | 36:07.60 | 6:21.62 | 162585 | 191221
9 | 42:29.47 | 4:25.72 | 191222 | 211168
10 | 46:55.44 | 3:26.11 | 211169 | 226629
11 | 50:21.55 | 3:32.45 | 226630 | 242574
12 | 53:54.25 | 3:26.36 | 242575 | 258060
13 | 57:20.61 | 4:59.24 | 258061 | 280509


Track 1

Filename D:\#cdr\#wav+flac\Mel & Kim - The Singles Box Set\cd 5 - That's The Way It Is\01. Mel & Kim - That's The Way It Is.wav

Pre-gap length 0:00:02.00

Peak level 99.7 %
Extraction speed 4.9 X
Track quality 100.0 %
Test CRC 3D232099
Copy CRC 3D232099
Track not present in AccurateRip database
Copy OK

Track 2

Filename D:\#cdr\#wav+flac\Mel & Kim - The Singles Box Set\cd 5 - That's The Way It Is\02. Mel & Kim - You Changed My Life.wav

Pre-gap length 0:00:00.49

Peak level 100.0 %
Extraction speed 5.3 X
Track quality 100.0 %
Test CRC 38430202
Copy CRC 38430202
Track not present in AccurateRip database
Copy OK

Track 3

Filename D:\#cdr\#wav+flac\Mel & Kim - The Singles Box Set\cd 5 - That's The Way It Is\03. Mel & Kim - That's The Way It Is [Extended Version].wav

Pre-gap length 0:00:00.50

Peak level 99.9 %
Extraction speed 6.4 X
Track quality 100.0 %
Test CRC 5B425DEC
Copy CRC 5B425DEC
Track not present in AccurateRip database
Copy OK

Track 4

Filename D:\#cdr\#wav+flac\Mel & Kim - The Singles Box Set\cd 5 - That's The Way It Is\04. Mel & Kim - That's The Way It Is [House Remix].wav

Pre-gap length 0:00:00.50

Peak level 100.0 %
Extraction speed 7.2 X
Track quality 100.0 %
Test CRC BAFC1FAA
Copy CRC BAFC1FAA
Track not present in AccurateRip database
Copy OK

Track 5

Filename D:\#cdr\#wav+flac\Mel & Kim - The Singles Box Set\cd 5 - That's The Way It Is\05. Mel & Kim - That's The Way It Is [Acid House Remix].wav

Pre-gap length 0:00:00.49

Peak level 100.0 %
Extraction speed 7.2 X
Track quality 99.9 %
Test CRC 0310E221
Copy CRC 0310E221
Track not present in AccurateRip database
Copy OK

Track 6

Filename D:\#cdr\#wav+flac\Mel & Kim - The Singles Box Set\cd 5 - That's The Way It Is\06. Mel & Kim - That's The Way It Is [Acid Dub].wav

Pre-gap length 0:00:00.50

Peak level 100.0 %
Extraction speed 8.3 X
Track quality 100.0 %
Test CRC D194A3CE
Copy CRC D194A3CE
Track not present in AccurateRip database
Copy OK

Track 7

Filename D:\#cdr\#wav+flac\Mel & Kim - The Singles Box Set\cd 5 - That's The Way It Is\07. Mel & Kim - That's The Way It Is [Acid Pop Mix].wav

Pre-gap length 0:00:00.49

Peak level 100.0 %
Extraction speed 8.2 X
Track quality 100.0 %
Test CRC 3ECB19A7
Copy CRC 3ECB19A7
Track not present in AccurateRip database
Copy OK

Track 8

Filename D:\#cdr\#wav+flac\Mel & Kim - The Singles Box Set\cd 5 - That's The Way It Is\08. Mel & Kim - That's The Way It Is [Original 12'' Mix].wav

Pre-gap length 0:00:00.49

Peak level 100.0 %
Extraction speed 9.2 X
Track quality 100.0 %
Test CRC 9834D4C2
Copy CRC 9834D4C2
Track not present in AccurateRip database
Copy OK

Track 9

Filename D:\#cdr\#wav+flac\Mel & Kim - The Singles Box Set\cd 5 - That's The Way It Is\09. Mel & Kim - That's The Way It Is [Original Dub].wav

Pre-gap length 0:00:00.50

Peak level 99.7 %
Extraction speed 7.5 X
Track quality 99.9 %
Test CRC F03B94F9
Copy CRC F03B94F9
Track not present in AccurateRip database
Copy OK

Track 10

Filename D:\#cdr\#wav+flac\Mel & Kim - The Singles Box Set\cd 5 - That's The Way It Is\10. Mel & Kim - That's The Way It Is [Instrumental].wav

Pre-gap length 0:00:00.50

Peak level 100.0 %
Extraction speed 7.2 X
Track quality 99.9 %
Test CRC CF750B9C
Copy CRC CF750B9C
Track not present in AccurateRip database
Copy OK

Track 11

Filename D:\#cdr\#wav+flac\Mel & Kim - The Singles Box Set\cd 5 - That's The Way It Is\11. Mel & Kim - That's The Way It Is [Acid Pop Instrumental].wav

Pre-gap length 0:00:00.49

Peak level 100.0 %
Extraction speed 9.3 X
Track quality 100.0 %
Test CRC 3E059E6C
Copy CRC 3E059E6C
Track not present in AccurateRip database
Copy OK

Track 12

Filename D:\#cdr\#wav+flac\Mel & Kim - The Singles Box Set\cd 5 - That's The Way It Is\12. Mel & Kim - You Changed My Life [Instrumental].wav

Pre-gap length 0:00:00.50

Peak level 100.0 %
Extraction speed 6.8 X
Track quality 99.8 %
Test CRC E2AEC40C
Copy CRC E2AEC40C
Track not present in AccurateRip database
Copy OK

Track 13

Filename D:\#cdr\#wav+flac\Mel & Kim - The Singles Box Set\cd 5 - That's The Way It Is\13. Mel & Kim - That's The Way It Is [Radio Jingles].wav

Pre-gap length 0:00:00.49

Peak level 98.7 %
Extraction speed 7.6 X
Track quality 99.9 %
Test CRC 1FD683FD
Copy CRC 1FD683FD
Track not present in AccurateRip database
Copy OK


None of the tracks are present in the AccurateRip database

No errors occurred

End of status report

–– CUETools DB Plugin V2.1.6

[CTDB TOCID: pko9MkvmUqpVOD2VRgIr8tlIwIA-] found
Submit result: pko9MkvmUqpVOD2VRgIr8tlIwIA- has been confirmed
Track | CTDB Status
1 | (7/7) Accurately ripped
2 | (7/7) Accurately ripped
3 | (7/7) Accurately ripped
4 | (7/7) Accurately ripped
5 | (7/7) Accurately ripped
6 | (7/7) Accurately ripped
7 | (7/7) Accurately ripped
8 | (7/7) Accurately ripped
9 | (7/7) Accurately ripped
10 | (7/7) Accurately ripped
11 | (7/7) Accurately ripped
12 | (7/7) Accurately ripped
13 | (7/7) Accurately ripped


==== Log checksum 6CDE5A704339861B12EB86963D922A79714BD3B0A563DC31917B7EF2AFBB87A3 ====

––––––––––––––––––––––––––––––

Exact Audio Copy V1.3 from 2. September 2016

EAC extraction logfile from 2. November 2019, 17:38

Mel & Kim / The Singles Box Set

Used drive : PLEXTOR PX-891SAF Adapter: 1 ID: 0

Read mode : Secure
Utilize accurate stream : Yes
Defeat audio cache : Yes
Make use of C2 pointers : No

Read offset correction : 6
Overread into Lead-In and Lead-Out : No
Fill up missing offset samples with silence : Yes
Delete leading and trailing silent blocks : No
Null samples used in CRC calculations : Yes
Used interface : Native Win32 interface for Win NT & 2000
Gap handling : Appended to previous track

Used output format : User Defined Encoder
Selected bitrate : 1024 kBit/s
Quality : High
Add ID3 tag : No
Command line compressor : C:\Program Files (x86)\Exact Audio Copy\Flac\flac.exe
Additional command line options : -8 -V -T "ARTIST=%artist%" -T "TITLE=%title%" -T "ALBUM=%albumtitle%" -T "DATE=%year%" -T "TRACKNUMBER=%tracknr%" -T "GENRE=%genre%" -T "PERFORMER=%albuminterpret%" -T "COMPOSER=%composer%" %haslyrics%–tag-from-file=LYRICS="%lyricsfile%"%haslyrics% -T "ALBUMARTIST=%albumartist%" -T "DISCNUMBER=%cdnumber%" -T "TOTALDISCS=%totalcds%" -T "TOTALTRACKS=%numtracks%" -T "COMMENT=%comment%" %source% -o %dest%


TOC of the extracted CD

Track | Start | Length | Start sector | End sector
––––––––––––––––––––––––––––-
1 | 0:00.00 | 3:26.42 | 0 | 15491
2 | 3:26.42 | 3:26.39 | 15492 | 30980
3 | 6:53.06 | 6:48.55 | 30981 | 61635
4 | 13:41.61 | 6:43.06 | 61636 | 91866
5 | 20:24.67 | 7:39.37 | 91867 | 126328
6 | 28:04.29 | 4:30.62 | 126329 | 146640
7 | 32:35.16 | 3:32.44 | 146641 | 162584
8 | 36:07.60 | 6:21.62 | 162585 | 191221
9 | 42:29.47 | 4:25.72 | 191222 | 211168
10 | 46:55.44 | 3:26.11 | 211169 | 226629
11 | 50:21.55 | 3:32.45 | 226630 | 242574
12 | 53:54.25 | 3:26.36 | 242575 | 258060
13 | 57:20.61 | 4:59.24 | 258061 | 280509


Track 1

Filename D:\#cdr\#wav+flac\Mel & Kim - The Singles Box Set\cd 5 - That's The Way It Is\01. Mel & Kim - That's The Way It Is.wav

Pre-gap length 0:00:02.00

Peak level 99.7 %
Extraction speed 4.9 X
Track quality 100.0 %
Test CRC 3D232099
Copy CRC 3D232099
Track not present in AccurateRip database
Copy OK

Track 2

Filename D:\#cdr\#wav+flac\Mel & Kim - The Singles Box Set\cd 5 - That's The Way It Is\02. Mel & Kim - You Changed My Life.wav

Pre-gap length 0:00:00.49

Peak level 100.0 %
Extraction speed 5.3 X
Track quality 100.0 %
Test CRC 38430202
Copy CRC 38430202
Track not present in AccurateRip database
Copy OK

Track 3

Filename D:\#cdr\#wav+flac\Mel & Kim - The Singles Box Set\cd 5 - That's The Way It Is\03. Mel & Kim - That's The Way It Is [Extended Version].wav

Pre-gap length 0:00:00.50

Peak level 99.9 %
Extraction speed 6.4 X
Track quality 100.0 %
Test CRC 5B425DEC
Copy CRC 5B425DEC
Track not present in AccurateRip database
Copy OK

Track 4

Filename D:\#cdr\#wav+flac\Mel & Kim - The Singles Box Set\cd 5 - That's The Way It Is\04. Mel & Kim - That's The Way It Is [House Remix].wav

Pre-gap length 0:00:00.50

Peak level 100.0 %
Extraction speed 7.2 X
Track quality 100.0 %
Test CRC BAFC1FAA
Copy CRC BAFC1FAA
Track not present in AccurateRip database
Copy OK

Track 5

Filename D:\#cdr\#wav+flac\Mel & Kim - The Singles Box Set\cd 5 - That's The Way It Is\05. Mel & Kim - That's The Way It Is [Acid House Remix].wav

Pre-gap length 0:00:00.49

Peak level 100.0 %
Extraction speed 7.2 X
Track quality 99.9 %
Test CRC 0310E221
Copy CRC 0310E221
Track not present in AccurateRip database
Copy OK

Track 6

Filename D:\#cdr\#wav+flac\Mel & Kim - The Singles Box Set\cd 5 - That's The Way It Is\06. Mel & Kim - That's The Way It Is [Acid Dub].wav

Pre-gap length 0:00:00.50

Peak level 100.0 %
Extraction speed 8.3 X
Track quality 100.0 %
Test CRC D194A3CE
Copy CRC D194A3CE
Track not present in AccurateRip database
Copy OK

Track 7

Filename D:\#cdr\#wav+flac\Mel & Kim - The Singles Box Set\cd 5 - That's The Way It Is\07. Mel & Kim - That's The Way It Is [Acid Pop Mix].wav

Pre-gap length 0:00:00.49

Peak level 100.0 %
Extraction speed 8.2 X
Track quality 100.0 %
Test CRC 3ECB19A7
Copy CRC 3ECB19A7
Track not present in AccurateRip database
Copy OK

Track 8

Filename D:\#cdr\#wav+flac\Mel & Kim - The Singles Box Set\cd 5 - That's The Way It Is\08. Mel & Kim - That's The Way It Is [Original 12'' Mix].wav

Pre-gap length 0:00:00.49

Peak level 100.0 %
Extraction speed 9.2 X
Track quality 100.0 %
Test CRC 9834D4C2
Copy CRC 9834D4C2
Track not present in AccurateRip database
Copy OK

Track 9

Filename D:\#cdr\#wav+flac\Mel & Kim - The Singles Box Set\cd 5 - That's The Way It Is\09. Mel & Kim - That's The Way It Is [Original Dub].wav

Pre-gap length 0:00:00.50

Peak level 99.7 %
Extraction speed 7.5 X
Track quality 99.9 %
Test CRC F03B94F9
Copy CRC F03B94F9
Track not present in AccurateRip database
Copy OK

Track 10

Filename D:\#cdr\#wav+flac\Mel & Kim - The Singles Box Set\cd 5 - That's The Way It Is\10. Mel & Kim - That's The Way It Is [Instrumental].wav

Pre-gap length 0:00:00.50

Peak level 100.0 %
Extraction speed 7.2 X
Track quality 99.9 %
Test CRC CF750B9C
Copy CRC CF750B9C
Track not present in AccurateRip database
Copy OK

Track 11

Filename D:\#cdr\#wav+flac\Mel & Kim - The Singles Box Set\cd 5 - That's The Way It Is\11. Mel & Kim - That's The Way It Is [Acid Pop Instrumental].wav

Pre-gap length 0:00:00.49

Peak level 100.0 %
Extraction speed 9.3 X
Track quality 100.0 %
Test CRC 3E059E6C
Copy CRC 3E059E6C
Track not present in AccurateRip database
Copy OK

Track 12

Filename D:\#cdr\#wav+flac\Mel & Kim - The Singles Box Set\cd 5 - That's The Way It Is\12. Mel & Kim - You Changed My Life [Instrumental].wav

Pre-gap length 0:00:00.50

Peak level 100.0 %
Extraction speed 6.8 X
Track quality 99.8 %
Test CRC E2AEC40C
Copy CRC E2AEC40C
Track not present in AccurateRip database
Copy OK

Track 13

Filename D:\#cdr\#wav+flac\Mel & Kim - The Singles Box Set\cd 5 - That's The Way It Is\13. Mel & Kim - That's The Way It Is [Radio Jingles].wav

Pre-gap length 0:00:00.49

Peak level 98.7 %
Extraction speed 7.6 X
Track quality 99.9 %
Test CRC 1FD683FD
Copy CRC 1FD683FD
Track not present in AccurateRip database
Copy OK


None of the tracks are present in the AccurateRip database

No errors occurred

End of status report

–– CUETools DB Plugin V2.1.6

[CTDB TOCID: pko9MkvmUqpVOD2VRgIr8tlIwIA-] found
Submit result: pko9MkvmUqpVOD2VRgIr8tlIwIA- has been confirmed
Track | CTDB Status
1 | (7/7) Accurately ripped
2 | (7/7) Accurately ripped
3 | (7/7) Accurately ripped
4 | (7/7) Accurately ripped
5 | (7/7) Accurately ripped
6 | (7/7) Accurately ripped
7 | (7/7) Accurately ripped
8 | (7/7) Accurately ripped
9 | (7/7) Accurately ripped
10 | (7/7) Accurately ripped
11 | (7/7) Accurately ripped
12 | (7/7) Accurately ripped
13 | (7/7) Accurately ripped


==== Log checksum 6CDE5A704339861B12EB86963D922A79714BD3B0A563DC31917B7EF2AFBB87A3 ====

Exact Audio Copy V1.3 from 2. September 2016

EAC extraction logfile from 2. November 2019, 17:48

Mel & Kim / The Singles Box Set

Used drive : PLEXTOR PX-891SAF Adapter: 1 ID: 0

Read mode : Secure
Utilize accurate stream : Yes
Defeat audio cache : Yes
Make use of C2 pointers : No

Read offset correction : 6
Overread into Lead-In and Lead-Out : No
Fill up missing offset samples with silence : Yes
Delete leading and trailing silent blocks : No
Null samples used in CRC calculations : Yes
Used interface : Native Win32 interface for Win NT & 2000
Gap handling : Appended to previous track

Used output format : User Defined Encoder
Selected bitrate : 1024 kBit/s
Quality : High
Add ID3 tag : No
Command line compressor : C:\Program Files (x86)\Exact Audio Copy\Flac\flac.exe
Additional command line options : -8 -V -T "ARTIST=%artist%" -T "TITLE=%title%" -T "ALBUM=%albumtitle%" -T "DATE=%year%" -T "TRACKNUMBER=%tracknr%" -T "GENRE=%genre%" -T "PERFORMER=%albuminterpret%" -T "COMPOSER=%composer%" %haslyrics%–tag-from-file=LYRICS="%lyricsfile%"%haslyrics% -T "ALBUMARTIST=%albumartist%" -T "DISCNUMBER=%cdnumber%" -T "TOTALDISCS=%totalcds%" -T "TOTALTRACKS=%numtracks%" -T "COMMENT=%comment%" %source% -o %dest%


TOC of the extracted CD

Track | Start | Length | Start sector | End sector
––––––––––––––––––––––––––––-
1 | 0:00.00 | 4:09.24 | 0 | 18698
2 | 4:09.24 | 3:24.49 | 18699 | 34047
3 | 7:33.73 | 6:50.46 | 34048 | 64843
4 | 14:24.44 | 4:08.62 | 64844 | 83505


Track 1

Filename D:\#cdr\#wav+flac\Mel & Kim - The Singles Box Set\cd 6 - More Than Words Can Say\01. Mel & Kim - More Than Words Can Say.wav

Pre-gap length 0:00:02.00

Peak level 100.0 %
Extraction speed 4.3 X
Track quality 99.9 %
Test CRC 8CC144AD
Copy CRC 8CC144AD
Track not present in AccurateRip database
Copy OK

Track 2

Filename D:\#cdr\#wav+flac\Mel & Kim - The Singles Box Set\cd 6 - More Than Words Can Say\02. Mel & Kim - You Changed My Life (Alternate Mix).wav

Pre-gap length 0:00:00.49

Peak level 100.0 %
Extraction speed 5.5 X
Track quality 100.0 %
Test CRC 0FA639EC
Copy CRC 0FA639EC
Track not present in AccurateRip database
Copy OK

Track 3

Filename D:\#cdr\#wav+flac\Mel & Kim - The Singles Box Set\cd 6 - More Than Words Can Say\03. Mel & Kim - More Than Words Can Say (Extended Version).wav

Pre-gap length 0:00:00.50

Peak level 100.0 %
Extraction speed 6.6 X
Track quality 100.0 %
Test CRC 857AC431
Copy CRC 857AC431
Track not present in AccurateRip database
Copy OK

Track 4

Filename D:\#cdr\#wav+flac\Mel & Kim - The Singles Box Set\cd 6 - More Than Words Can Say\04. Mel & Kim - More Than Words Can Say (Instrumental).wav

Pre-gap length 0:00:00.49

Peak level 99.8 %
Extraction speed 6.7 X
Track quality 100.0 %
Test CRC DC9BDFB1
Copy CRC DC9BDFB1
Track not present in AccurateRip database
Copy OK


None of the tracks are present in the AccurateRip database

No errors occurred

End of status report

–– CUETools DB Plugin V2.1.6

[CTDB TOCID: gvqGTx.szUfQyh_K8MDUaokNFns-] found
Submit result: gvqGTx.szUfQyh_K8MDUaokNFns- has been confirmed
Track | CTDB Status
1 | (7/7) Accurately ripped
2 | (7/7) Accurately ripped
3 | (6/7) Accurately ripped
4 | (6/7) Accurately ripped


==== Log checksum 01BB35A1A95C636BE31A866BCF9976F471EE15E5A38575CA26EC4B6318DF514A ====

––––––––––––––––––––––––––––––

Exact Audio Copy V1.3 from 2. September 2016

EAC extraction logfile from 2. November 2019, 17:48

Mel & Kim / The Singles Box Set

Used drive : PLEXTOR PX-891SAF Adapter: 1 ID: 0

Read mode : Secure
Utilize accurate stream : Yes
Defeat audio cache : Yes
Make use of C2 pointers : No

Read offset correction : 6
Overread into Lead-In and Lead-Out : No
Fill up missing offset samples with silence : Yes
Delete leading and trailing silent blocks : No
Null samples used in CRC calculations : Yes
Used interface : Native Win32 interface for Win NT & 2000
Gap handling : Appended to previous track

Used output format : User Defined Encoder
Selected bitrate : 1024 kBit/s
Quality : High
Add ID3 tag : No
Command line compressor : C:\Program Files (x86)\Exact Audio Copy\Flac\flac.exe
Additional command line options : -8 -V -T "ARTIST=%artist%" -T "TITLE=%title%" -T "ALBUM=%albumtitle%" -T "DATE=%year%" -T "TRACKNUMBER=%tracknr%" -T "GENRE=%genre%" -T "PERFORMER=%albuminterpret%" -T "COMPOSER=%composer%" %haslyrics%–tag-from-file=LYRICS="%lyricsfile%"%haslyrics% -T "ALBUMARTIST=%albumartist%" -T "DISCNUMBER=%cdnumber%" -T "TOTALDISCS=%totalcds%" -T "TOTALTRACKS=%numtracks%" -T "COMMENT=%comment%" %source% -o %dest%


TOC of the extracted CD

Track | Start | Length | Start sector | End sector
––––––––––––––––––––––––––––-
1 | 0:00.00 | 4:09.24 | 0 | 18698
2 | 4:09.24 | 3:24.49 | 18699 | 34047
3 | 7:33.73 | 6:50.46 | 34048 | 64843
4 | 14:24.44 | 4:08.62 | 64844 | 83505


Track 1

Filename D:\#cdr\#wav+flac\Mel & Kim - The Singles Box Set\cd 6 - More Than Words Can Say\01. Mel & Kim - More Than Words Can Say.wav

Pre-gap length 0:00:02.00

Peak level 100.0 %
Extraction speed 4.3 X
Track quality 99.9 %
Test CRC 8CC144AD
Copy CRC 8CC144AD
Track not present in AccurateRip database
Copy OK

Track 2

Filename D:\#cdr\#wav+flac\Mel & Kim - The Singles Box Set\cd 6 - More Than Words Can Say\02. Mel & Kim - You Changed My Life (Alternate Mix).wav

Pre-gap length 0:00:00.49

Peak level 100.0 %
Extraction speed 5.5 X
Track quality 100.0 %
Test CRC 0FA639EC
Copy CRC 0FA639EC
Track not present in AccurateRip database
Copy OK

Track 3

Filename D:\#cdr\#wav+flac\Mel & Kim - The Singles Box Set\cd 6 - More Than Words Can Say\03. Mel & Kim - More Than Words Can Say (Extended Version).wav

Pre-gap length 0:00:00.50

Peak level 100.0 %
Extraction speed 6.6 X
Track quality 100.0 %
Test CRC 857AC431
Copy CRC 857AC431
Track not present in AccurateRip database
Copy OK

Track 4

Filename D:\#cdr\#wav+flac\Mel & Kim - The Singles Box Set\cd 6 - More Than Words Can Say\04. Mel & Kim - More Than Words Can Say (Instrumental).wav

Pre-gap length 0:00:00.49

Peak level 99.8 %
Extraction speed 6.7 X
Track quality 100.0 %
Test CRC DC9BDFB1
Copy CRC DC9BDFB1
Track not present in AccurateRip database
Copy OK


None of the tracks are present in the AccurateRip database

No errors occurred

End of status report

–– CUETools DB Plugin V2.1.6

[CTDB TOCID: gvqGTx.szUfQyh_K8MDUaokNFns-] found
Submit result: gvqGTx.szUfQyh_K8MDUaokNFns- has been confirmed
Track | CTDB Status
1 | (7/7) Accurately ripped
2 | (7/7) Accurately ripped
3 | (6/7) Accurately ripped
4 | (6/7) Accurately ripped


==== Log checksum 01BB35A1A95C636BE31A866BCF9976F471EE15E5A38575CA26EC4B6318DF514A ====

Exact Audio Copy V1.3 from 2. September 2016

EAC extraction logfile from 2. November 2019, 18:03

Mel & Kim / The Singles Box Set

Used drive : PLEXTOR PX-891SAF Adapter: 1 ID: 0

Read mode : Secure
Utilize accurate stream : Yes
Defeat audio cache : Yes
Make use of C2 pointers : No

Read offset correction : 6
Overread into Lead-In and Lead-Out : No
Fill up missing offset samples with silence : Yes
Delete leading and trailing silent blocks : No
Null samples used in CRC calculations : Yes
Used interface : Native Win32 interface for Win NT & 2000
Gap handling : Appended to previous track

Used output format : User Defined Encoder
Selected bitrate : 1024 kBit/s
Quality : High
Add ID3 tag : No
Command line compressor : C:\Program Files (x86)\Exact Audio Copy\Flac\flac.exe
Additional command line options : -8 -V -T "ARTIST=%artist%" -T "TITLE=%title%" -T "ALBUM=%albumtitle%" -T "DATE=%year%" -T "TRACKNUMBER=%tracknr%" -T "GENRE=%genre%" -T "PERFORMER=%albuminterpret%" -T "COMPOSER=%composer%" %haslyrics%–tag-from-file=LYRICS="%lyricsfile%"%haslyrics% -T "ALBUMARTIST=%albumartist%" -T "DISCNUMBER=%cdnumber%" -T "TOTALDISCS=%totalcds%" -T "TOTALTRACKS=%numtracks%" -T "COMMENT=%comment%" %source% -o %dest%


TOC of the extracted CD

Track | Start | Length | Start sector | End sector
––––––––––––––––––––––––––––-
1 | 0:00.00 | 3:58.09 | 0 | 17858
2 | 3:58.09 | 3:27.45 | 17859 | 33428
3 | 7:25.54 | 7:11.02 | 33429 | 65755
4 | 14:36.56 | 6:34.62 | 65756 | 95367
5 | 21:11.43 | 7:06.52 | 95368 | 127369
6 | 28:18.20 | 6:10.02 | 127370 | 155121
7 | 34:28.22 | 5:56.27 | 155122 | 181848


Track 1

Filename D:\#cdr\#wav+flac\Mel & Kim - The Singles Box Set\cd 7 - Megamix Ninety!\01. Mel & Kim - The Mel & Kim 1990 Megamix.wav

Pre-gap length 0:00:02.00

Peak level 100.0 %
Extraction speed 5.1 X
Track quality 100.0 %
Test CRC 2F15E6E2
Copy CRC 2F15E6E2
Track not present in AccurateRip database
Copy OK

Track 2

Filename D:\#cdr\#wav+flac\Mel & Kim - The Singles Box Set\cd 7 - Megamix Ninety!\02. Mel & Kim - Showing Out (Italo House Mix).wav

Pre-gap length 0:00:00.50

Peak level 99.9 %
Extraction speed 5.4 X
Track quality 100.0 %
Test CRC 520448F8
Copy CRC 520448F8
Track not present in AccurateRip database
Copy OK

Track 3

Filename D:\#cdr\#wav+flac\Mel & Kim - The Singles Box Set\cd 7 - Megamix Ninety!\03. Mel & Kim - The Mel & Kim 1990 Megamix (Extended Version).wav

Pre-gap length 0:00:00.50

Peak level 100.0 %
Extraction speed 6.6 X
Track quality 100.0 %
Test CRC 42D63A9A
Copy CRC 42D63A9A
Track not present in AccurateRip database
Copy OK

Track 4

Filename D:\#cdr\#wav+flac\Mel & Kim - The Singles Box Set\cd 7 - Megamix Ninety!\04. Mel & Kim - The Mel & Kim 1990 Megamix (Alternative Version).wav

Pre-gap length 0:00:00.50

Peak level 100.0 %
Extraction speed 6.3 X
Track quality 99.9 %
Test CRC A63439FB
Copy CRC A63439FB
Track not present in AccurateRip database
Copy OK

Track 5

Filename D:\#cdr\#wav+flac\Mel & Kim - The Singles Box Set\cd 7 - Megamix Ninety!\05. Mel & Kim - The Mel & Kim 1990 Megamix (12'' Remix).wav

Pre-gap length 0:00:00.49

Peak level 100.0 %
Extraction speed 7.9 X
Track quality 100.0 %
Test CRC 24D62C12
Copy CRC 24D62C12
Track not present in AccurateRip database
Copy OK

Track 6

Filename D:\#cdr\#wav+flac\Mel & Kim - The Singles Box Set\cd 7 - Megamix Ninety!\06. Mel & Kim - Showing Out (Italo House 12 Inch Mix).wav

Pre-gap length 0:00:00.49

Peak level 100.0 %
Extraction speed 8.4 X
Track quality 100.0 %
Test CRC 42BB691C
Copy CRC 42BB691C
Track not present in AccurateRip database
Copy OK

Track 7

Filename D:\#cdr\#wav+flac\Mel & Kim - The Singles Box Set\cd 7 - Megamix Ninety!\07. Mel & Kim - Showing Out (Technomix).wav

Pre-gap length 0:00:00.50

Peak level 100.0 %
Extraction speed 8.9 X
Track quality 100.0 %
Test CRC D87B5FFA
Copy CRC D87B5FFA
Track not present in AccurateRip database
Copy OK


None of the tracks are present in the AccurateRip database

No errors occurred

End of status report

–– CUETools DB Plugin V2.1.6

[CTDB TOCID: E1zEAwCXsic7kUHl.llLKckpoAM-] found
Submit result: E1zEAwCXsic7kUHl.llLKckpoAM- has been confirmed
Track | CTDB Status
1 | (7/7) Accurately ripped
2 | (7/7) Accurately ripped
3 | (7/7) Accurately ripped
4 | (7/7) Accurately ripped
5 | (7/7) Accurately ripped
6 | (7/7) Accurately ripped
7 | (7/7) Accurately ripped


==== Log checksum F82F8467122A1DEF21CA22D9F37805C7ED8574BB1117D647CEC4DC9E3F24D948 ====

––––––––––––––––––––––––––––––

Exact Audio Copy V1.3 from 2. September 2016

EAC extraction logfile from 2. November 2019, 18:03

Mel & Kim / The Singles Box Set

Used drive : PLEXTOR PX-891SAF Adapter: 1 ID: 0

Read mode : Secure
Utilize accurate stream : Yes
Defeat audio cache : Yes
Make use of C2 pointers : No

Read offset correction : 6
Overread into Lead-In and Lead-Out : No
Fill up missing offset samples with silence : Yes
Delete leading and trailing silent blocks : No
Null samples used in CRC calculations : Yes
Used interface : Native Win32 interface for Win NT & 2000
Gap handling : Appended to previous track

Used output format : User Defined Encoder
Selected bitrate : 1024 kBit/s
Quality : High
Add ID3 tag : No
Command line compressor : C:\Program Files (x86)\Exact Audio Copy\Flac\flac.exe
Additional command line options : -8 -V -T "ARTIST=%artist%" -T "TITLE=%title%" -T "ALBUM=%albumtitle%" -T "DATE=%year%" -T "TRACKNUMBER=%tracknr%" -T "GENRE=%genre%" -T "PERFORMER=%albuminterpret%" -T "COMPOSER=%composer%" %haslyrics%–tag-from-file=LYRICS="%lyricsfile%"%haslyrics% -T "ALBUMARTIST=%albumartist%" -T "DISCNUMBER=%cdnumber%" -T "TOTALDISCS=%totalcds%" -T "TOTALTRACKS=%numtracks%" -T "COMMENT=%comment%" %source% -o %dest%


TOC of the extracted CD

Track | Start | Length | Start sector | End sector
––––––––––––––––––––––––––––-
1 | 0:00.00 | 3:58.09 | 0 | 17858
2 | 3:58.09 | 3:27.45 | 17859 | 33428
3 | 7:25.54 | 7:11.02 | 33429 | 65755
4 | 14:36.56 | 6:34.62 | 65756 | 95367
5 | 21:11.43 | 7:06.52 | 95368 | 127369
6 | 28:18.20 | 6:10.02 | 127370 | 155121
7 | 34:28.22 | 5:56.27 | 155122 | 181848


Track 1

Filename D:\#cdr\#wav+flac\Mel & Kim - The Singles Box Set\cd 7 - Megamix Ninety!\01. Mel & Kim - The Mel & Kim 1990 Megamix.wav

Pre-gap length 0:00:02.00

Peak level 100.0 %
Extraction speed 5.1 X
Track quality 100.0 %
Test CRC 2F15E6E2
Copy CRC 2F15E6E2
Track not present in AccurateRip database
Copy OK

Track 2

Filename D:\#cdr\#wav+flac\Mel & Kim - The Singles Box Set\cd 7 - Megamix Ninety!\02. Mel & Kim - Showing Out (Italo House Mix).wav

Pre-gap length 0:00:00.50

Peak level 99.9 %
Extraction speed 5.4 X
Track quality 100.0 %
Test CRC 520448F8
Copy CRC 520448F8
Track not present in AccurateRip database
Copy OK

Track 3

Filename D:\#cdr\#wav+flac\Mel & Kim - The Singles Box Set\cd 7 - Megamix Ninety!\03. Mel & Kim - The Mel & Kim 1990 Megamix (Extended Version).wav

Pre-gap length 0:00:00.50

Peak level 100.0 %
Extraction speed 6.6 X
Track quality 100.0 %
Test CRC 42D63A9A
Copy CRC 42D63A9A
Track not present in AccurateRip database
Copy OK

Track 4

Filename D:\#cdr\#wav+flac\Mel & Kim - The Singles Box Set\cd 7 - Megamix Ninety!\04. Mel & Kim - The Mel & Kim 1990 Megamix (Alternative Version).wav

Pre-gap length 0:00:00.50

Peak level 100.0 %
Extraction speed 6.3 X
Track quality 99.9 %
Test CRC A63439FB
Copy CRC A63439FB
Track not present in AccurateRip database
Copy OK

Track 5

Filename D:\#cdr\#wav+flac\Mel & Kim - The Singles Box Set\cd 7 - Megamix Ninety!\05. Mel & Kim - The Mel & Kim 1990 Megamix (12'' Remix).wav

Pre-gap length 0:00:00.49

Peak level 100.0 %
Extraction speed 7.9 X
Track quality 100.0 %
Test CRC 24D62C12
Copy CRC 24D62C12
Track not present in AccurateRip database
Copy OK

Track 6

Filename D:\#cdr\#wav+flac\Mel & Kim - The Singles Box Set\cd 7 - Megamix Ninety!\06. Mel & Kim - Showing Out (Italo House 12 Inch Mix).wav

Pre-gap length 0:00:00.49

Peak level 100.0 %
Extraction speed 8.4 X
Track quality 100.0 %
Test CRC 42BB691C
Copy CRC 42BB691C
Track not present in AccurateRip database
Copy OK

Track 7

Filename D:\#cdr\#wav+flac\Mel & Kim - The Singles Box Set\cd 7 - Megamix Ninety!\07. Mel & Kim - Showing Out (Technomix).wav

Pre-gap length 0:00:00.50

Peak level 100.0 %
Extraction speed 8.9 X
Track quality 100.0 %
Test CRC D87B5FFA
Copy CRC D87B5FFA
Track not present in AccurateRip database
Copy OK


None of the tracks are present in the AccurateRip database

No errors occurred

End of status report

–– CUETools DB Plugin V2.1.6

[CTDB TOCID: E1zEAwCXsic7kUHl.llLKckpoAM-] found
Submit result: E1zEAwCXsic7kUHl.llLKckpoAM- has been confirmed
Track | CTDB Status
1 | (7/7) Accurately ripped
2 | (7/7) Accurately ripped
3 | (7/7) Accurately ripped
4 | (7/7) Accurately ripped
5 | (7/7) Accurately ripped
6 | (7/7) Accurately ripped
7 | (7/7) Accurately ripped


==== Log checksum F82F8467122A1DEF21CA22D9F37805C7ED8574BB1117D647CEC4DC9E3F24D948 ====

Tracklist :::
Showing Out
1-1 Showing Out (Get Fresh At The Weekend) 3:34
1-2 System (House Mix) 3:47
1-3 Showing Out (Extended Version) 7:14
1-4 Showing Out (The Mortgage Mix) 6:28
1-5 Showing Out (The Freehold Mix) 4:35
1-6 Showing Out (Edit) 4:51
1-7 System (Garage Vocal) 7:21
1-8 System (12" House Mix) 9:00
1-9 System (Alternative Mix) 3:57
1-10 System (Original 12" Mix) 5:45
1-11 System (U.S. Album Edit) 4:53
1-12 System (Dub) 4:25
1-13 Showing Out (Instrumental) 5:47
1-14 System (Instrumental) 4:23

Respectable
2-1 Respectable 3:22
2-2 Respectable (Extended Version) 6:18
2-3 Respectable (Extra Beats Vocal) 8:09
2-4 Respectable (The Tabloid Mix) 7:53
2-5 Respectable (Shop Mix) 6:17
2-6 Respectable (Full Album Version) 6:35
2-7 Respectable (Alternative 12" Mix) 6:41
2-8 Respectable (Pete Hammond Mix) 5:47
2-9 Respectable (Mega Remix) 9:08
2-10 Respectable (Extra Beats Version) 6:11
2-11 Respectable (Instrumental) 4:09
2-12 Respectable (12" Instrumental) 6:06

F.L.M.
3-1 F.L.M. 3:34
3-2 F.L.M. (Extended Version) 7:53
3-3 F.L.M. (Club Mix) 5:39
3-4 F.L.M. (Sonic Remix) 6:20
3-5 F.L.M. (Auto Mix) 7:26
3-6 F.L.M. (Two Grooves Under One Nation Remix) 8:17
3-7 F.L.M. (Two Grooves Under One Nation Dub) 4:37
3-8 F.L.M. (Two Grooves Under One Nation 7" Mix) 3:53
3-9 F.L.M. (Phil Harding Mix) 9:15
3-10 F.L.M. (Beat Boys Mix) 9:37
3-11 F.L.M. (Beat Boys Dub) 4:48
3-12 Showing Out / Respectable (Mega Mix) 7:40

I'm The One Who Really Loves You
4-1 I'm The One Who Really Loves You (Pop Radio 7" Mix) 2:53
4-2 I'm The One Who Really Loves You (Hip Hop Radio Mix) 3:58
4-3 I'm The One Who Really Loves You (Stardom Groove Club Mix) 5:59
4-4 I'm The One Who Really Loves You (Kickin' Live Mix) 6:47
4-5 I'm The One Who Really Loves You (Groove Dub) 5:42
4-6 I'm The One Who Really Loves You (Done Properly Dub) 6:11
4-7 I'm The One Who Really Loves You (Pop Radio Mix) 3:46
4-8 I'm The One Who Really Loves You (Chicago Club Mix) 5:50
4-9 I'm The One Who Really Loves You (Chicago Dubstrumental) 7:14
4-10 I'm The One Who Really Loves You (Chicago Radio Mix) 3:34
4-11 I'm The One Who Really Loves You (Yoyo's 12" Mix) 6:44
4-12 I'm The One Who Really Loves You (Original Mix) 3:40
4-13 I'm The One Who Really Loves You (Alternative Mix) 3:40
4-14 I'm The One Who Really Loves You (Instrumental) 3:34

That's The Way It Is
5-1 That's The Way It Is 3:27
5-2 You Changed My Life 3:27
5-3 That's The Way It Is (Extended Version) 6:49
5-4 That's The Way It Is (House Remix) 6:43
5-5 That's The Way It Is (Acid House Remix) 7:39
5-6 That's The Way It Is (Acid Dub) 4:31
5-7 That's The Way It Is (Acid Pop Mix) 3:33
5-8 That's The Way It Is (Original 12" Mix) 6:22
5-9 That's The Way It Is (Original Dub) 4:26
5-10 That's The Way It Is (Instrumental) 3:26
5-11 That's The Way It Is (Acid Pop Instrumental) 3:33
5-12 You Changed My Life (Instrumental) 3:26
5-13 That's The Way It Is (Radio Jingles) 4:59

More Than Words Can Say
6-1 More Than Words Can Say 4:09
6-2 You Changed My Life (Alternative Mix) 3:25
6-3 More Than Words Can Say (Extended Version) 6:51
6-4 More Than Words Can Say (Instrumental) 4:09

Megamix:ninety!
7-1 The Mel & Kim 1990 Mega-Mix 3:58
7-2 Showing Out (The Italo House Mix) 3:28
7-3 The Mel & Kim 1990 Mega-Mix (Extended Version) 7:11
7-4 The Mel & Kim 1990 Mega-Mix (Alternative Version) 6:35
7-5 The Mel & Kim 1990 Mega-Mix (12" Remix) 7:07
7-6 Showing Out (The Italo House 12" Mix) 6:10
7-7 Showing Out (Techno Mix) 5:56

Thanks to Original Re-leaser.