Subcategories

Mercedes Sosa - En Argentina ( CD 1991 )

Posted By: jbglx
Mercedes Sosa - En Argentina ( CD 1991 )

Mercedes Sosa - En Argentina ( CD 1991 )
EAC Rip | FLAC-TRACKS+LOG-AAD Stereo | 1CD | Scans | 71 Min. | 401 MB
Label : Philips-Polygram / Catalogue : 314510499-2
Latin American Folk / CD released in 1991

MUST-HAVE FOR ALL FANS OF GOOD MUSIC! o hear her voice, with its soul and energy, one can understand the excitement of the crowd. You can see why they are so glad to have her back where she belongs - on the stage - after a long absence in political exile. An artist of the highest order, she can mesmerize you like an Edith Piaf or a Cesaria Evora, but like all great artists, she belongs in a class of her own.Her voice is a warm, smooth alto that is as effective in a soft lull as it is in full throttle. Sosa possesses a truly an amazing set of pipes. In this recording, she is ON, and the audience knows it, and, boy, can they show their appreciation!
-Amazon-
Mercedes Sosa - En Argentina ( CD 1991 )
Mercedes Sosa - En Argentina ( CD 1991 )
Recorded live at Teatro Opera de Buenos Aires
February 18 thru 28 , 1982.

Mercedes Sosa : Voice
Omar Espinosa : Guitar and "charango"
José Luis Castiñeira de Dios : Bass and guitar
Domingo Cura : Percusion
Invited artists :
Charly Garcia : Voice
Leon Gieco : Voice
Ariel Ramirez : Piano
Antonio Tarragó Ros : Accordeon
Rodolfo Mederos : Bandoneon

Track Listing :
1. Drume negrita
Bola de nieve
2. Sueños con serpientes
Silvio Rodriguez
3. María María
FernandoBrant/Nascimento
4. Al jardín de la república
Virgilio Carmona
5. Gracias a la vida
Violeta Parra
6. Alfonsina y el mar
Felix Luna - Ariel Ramírez
7. Como la cigarra
M. E. Walsh
8. Sólo le pido a Dios (con León Gieco)
León Gieco
9. La flor azul
Gallo/Villar
10. Los hermanos
Atahualpa Yupanqui
11. La arenosa
Gustavo Leguizamón y M. J. Castilla
12. Años
Pablo Milanés
13. Los mareados
J. Carlos Cobián/ Enríque Cadícamo
14. Cuando ya me empiece a quedar solo (con Charly García)
Charly García
15. Volver a los 17
Violeta Parra
16. Fuegos en Anymaná
A. T. Gomez/César Isella
17. Polleritas
a) Pollerita colorada
b) Carnavalito del duende
c) Pollerita
18. Canción con todos
A. T. Gomez/César Isella


Exact Audio Copy V1.0 beta 3 from 29. August 2011

EAC extraction logfile from 14. January 2013, 7:38

Mercedes Sosa / Mercedes Sosa en Argentina

Used drive : SONY DVD RW DRU-840A Adapter: 0 ID: 1

Read mode : Secure
Utilize accurate stream : Yes
Defeat audio cache : Yes
Make use of C2 pointers : No

Read offset correction : 6
Overread into Lead-In and Lead-Out : No
Fill up missing offset samples with silence : Yes
Delete leading and trailing silent blocks : No
Null samples used in CRC calculations : Yes
Used interface : Native Win32 interface for Win NT & 2000
Gap handling : Not detected, thus appended to previous track

Used output format : User Defined Encoder
Selected bitrate : 320 kBit/s
Quality : High
Add ID3 tag : No
Command line compressor : C:\Archivos de programa\Exact Audio Copy\FLAC\FLAC.EXE
Additional command line options : -6 -V -T "ARTIST=%artist%" -T "TITLE=%title%" -T "ALBUM=%albumtitle%" -T "DATE=%year%" -T "TRACKNUMBER=%tracknr%" -T "GENRE=%genre%" -T "COMMENT=%comment%" -T "BAND=%albuminterpret%" -T "ALBUMARTIST=%albuminterpret%" -T "COMPOSER=%composer%" %haslyrics%–tag-from-file=LYRICS="%lyricsfile%"%haslyrics% -T "DISCNUMBER=%cdnumber%" -T "TOTALDISCS=%totalcds%" -T "TOTALTRACKS=%numtracks%" %hascover%–picture="%coverfile%"%hascover% %source% -o %dest%


TOC of the extracted CD

Track | Start | Length | Start sector | End sector
––––––––––––––––––––––––––––-
1 | 0:00.32 | 2:26.43 | 32 | 11024
2 | 2:27.00 | 5:03.20 | 11025 | 33769
3 | 7:30.20 | 4:02.00 | 33770 | 51919
4 | 11:32.20 | 2:40.45 | 51920 | 63964
5 | 14:12.65 | 4:53.05 | 63965 | 85944
6 | 19:05.70 | 5:17.55 | 85945 | 109774
7 | 24:23.50 | 2:40.60 | 109775 | 121834
8 | 27:04.35 | 4:37.50 | 121835 | 142659
9 | 31:42.10 | 3:13.17 | 142660 | 157151
10 | 34:55.27 | 3:58.58 | 157152 | 175059
11 | 38:54.10 | 3:00.65 | 175060 | 188624
12 | 41:55.00 | 3:20.52 | 188625 | 203676
13 | 45:15.52 | 5:47.68 | 203677 | 229769
14 | 51:03.45 | 3:44.15 | 229770 | 246584
15 | 54:47.60 | 4:47.55 | 246585 | 268164
16 | 59:35.40 | 3:27.15 | 268165 | 283704
17 | 63:02.55 | 4:43.55 | 283705 | 304984
18 | 67:46.35 | 4:15.70 | 304985 | 324179


Track 1

Filename E:\MUSIC\My Music\Mercedes Sosa - En Argentina\CD\01 Drume Negrita.wav

Peak level 97.1 %
Extraction speed 1.7 X
Track quality 100.0 %
Test CRC 43C98727
Copy CRC 43C98727
Accurately ripped (confidence 7) [CE3A1C52] (AR v1)
Copy OK

Track 2

Filename E:\MUSIC\My Music\Mercedes Sosa - En Argentina\CD\02 Sueño con Serpientes.wav

Peak level 100.0 %
Extraction speed 2.1 X
Track quality 100.0 %
Test CRC EB0EDDBB
Copy CRC EB0EDDBB
Accurately ripped (confidence 7) [C400C5A8] (AR v1)
Copy OK

Track 3

Filename E:\MUSIC\My Music\Mercedes Sosa - En Argentina\CD\03 María Va.wav

Peak level 74.7 %
Extraction speed 1.9 X
Track quality 99.9 %
Test CRC 21474218
Copy CRC 21474218
Accurately ripped (confidence 7) [2B654DBD] (AR v1)
Copy OK

Track 4

Filename E:\MUSIC\My Music\Mercedes Sosa - En Argentina\CD\04 Al Jardín de la República.wav

Peak level 92.4 %
Extraction speed 2.2 X
Track quality 100.0 %
Test CRC BC4098FD
Copy CRC BC4098FD
Accurately ripped (confidence 7) [3DEDE763] (AR v1)
Copy OK

Track 5

Filename E:\MUSIC\My Music\Mercedes Sosa - En Argentina\CD\05 Gracias a la Vida.wav

Peak level 100.0 %
Extraction speed 2.6 X
Track quality 100.0 %
Test CRC 1AB4FF77
Copy CRC 1AB4FF77
Accurately ripped (confidence 7) [001303C6] (AR v1)
Copy OK

Track 6

Filename E:\MUSIC\My Music\Mercedes Sosa - En Argentina\CD\06 Alfonsina y el Mar.wav

Peak level 96.2 %
Extraction speed 2.4 X
Track quality 99.9 %
Test CRC 3EEE1335
Copy CRC 3EEE1335
Accurately ripped (confidence 7) [6EE678F5] (AR v1)
Copy OK

Track 7

Filename E:\MUSIC\My Music\Mercedes Sosa - En Argentina\CD\07 Como la Cigarra.wav

Peak level 75.5 %
Extraction speed 2.6 X
Track quality 100.0 %
Test CRC 3D25A8D8
Copy CRC 3D25A8D8
Accurately ripped (confidence 7) [B448291D] (AR v1)
Copy OK

Track 8

Filename E:\MUSIC\My Music\Mercedes Sosa - En Argentina\CD\08 Solo le Pido a Díos.wav

Peak level 100.0 %
Extraction speed 3.0 X
Track quality 100.0 %
Test CRC 2E1FF453
Copy CRC 2E1FF453
Accurately ripped (confidence 7) [7041F7B8] (AR v1)
Copy OK

Track 9

Filename E:\MUSIC\My Music\Mercedes Sosa - En Argentina\CD\09 La Flor Azul.wav

Peak level 96.2 %
Extraction speed 2.2 X
Track quality 99.9 %
Test CRC D74688C4
Copy CRC D74688C4
Accurately ripped (confidence 7) [78E7BC1E] (AR v1)
Copy OK

Track 10

Filename E:\MUSIC\My Music\Mercedes Sosa - En Argentina\CD\10 Los Hermanos.wav

Peak level 74.7 %
Extraction speed 3.2 X
Track quality 100.0 %
Test CRC CAF9F8A3
Copy CRC CAF9F8A3
Accurately ripped (confidence 7) [C259D3A3] (AR v1)
Copy OK

Track 11

Filename E:\MUSIC\My Music\Mercedes Sosa - En Argentina\CD\11 La Arenosa.wav

Peak level 99.0 %
Extraction speed 3.0 X
Track quality 100.0 %
Test CRC 1BBD6FFB
Copy CRC 1BBD6FFB
Accurately ripped (confidence 7) [A158E4E7] (AR v1)
Copy OK

Track 12

Filename E:\MUSIC\My Music\Mercedes Sosa - En Argentina\CD\12 Años.wav

Peak level 64.3 %
Extraction speed 3.2 X
Track quality 100.0 %
Test CRC 45BCCFDD
Copy CRC 45BCCFDD
Accurately ripped (confidence 7) [D0CA2128] (AR v1)
Copy OK

Track 13

Filename E:\MUSIC\My Music\Mercedes Sosa - En Argentina\CD\13 Los Mareados.wav

Peak level 87.6 %
Extraction speed 2.9 X
Track quality 99.9 %
Test CRC 158CD0D9
Copy CRC 158CD0D9
Accurately ripped (confidence 7) [41E032DA] (AR v1)
Copy OK

Track 14

Filename E:\MUSIC\My Music\Mercedes Sosa - En Argentina\CD\14 Cuando ya me Empiece a Quedar Solo.wav

Peak level 83.7 %
Extraction speed 3.5 X
Track quality 100.0 %
Test CRC 6F87CDA8
Copy CRC 6F87CDA8
Accurately ripped (confidence 6) [35CC0478] (AR v1)
Copy OK

Track 15

Filename E:\MUSIC\My Music\Mercedes Sosa - En Argentina\CD\15 Volver a los 17.wav

Peak level 90.5 %
Extraction speed 3.6 X
Track quality 100.0 %
Test CRC 1B165901
Copy CRC 1B165901
Accurately ripped (confidence 7) [517D2E34] (AR v1)
Copy OK

Track 16

Filename E:\MUSIC\My Music\Mercedes Sosa - En Argentina\CD\16 Fuego en Anymana.wav

Peak level 100.0 %
Extraction speed 2.9 X
Track quality 100.0 %
Test CRC A8ED7D49
Copy CRC A8ED7D49
Accurately ripped (confidence 6) [EB63BBBA] (AR v1)
Copy OK

Track 17

Filename E:\MUSIC\My Music\Mercedes Sosa - En Argentina\CD\17 Polleritas - Pollerita Colorada, Carnavalito del Duende, Pollerita.wav

Peak level 100.0 %
Extraction speed 4.0 X
Track quality 100.0 %
Test CRC ABDF37E9
Copy CRC ABDF37E9
Accurately ripped (confidence 5) [10F3BA76] (AR v1)
Copy OK

Track 18

Filename E:\MUSIC\My Music\Mercedes Sosa - En Argentina\CD\18 Canción con Todos.wav

Peak level 100.0 %
Extraction speed 4.0 X
Track quality 100.0 %
Test CRC BD8988A7
Copy CRC BD8988A7
Accurately ripped (confidence 7) [26268ECB] (AR v1)
Copy OK


All tracks accurately ripped

No errors occurred

End of status report

==== Log checksum EFE0326F22B68E1F8033EE5C8098042925FF67BA965371CAB3EA78CFA0E3CCFC ====

––––––––––––––––––––––––––––––

Exact Audio Copy V1.0 beta 3 from 29. August 2011

EAC extraction logfile from 14. January 2013, 7:38

Mercedes Sosa / Mercedes Sosa en Argentina

Used drive : SONY DVD RW DRU-840A Adapter: 0 ID: 1

Read mode : Secure
Utilize accurate stream : Yes
Defeat audio cache : Yes
Make use of C2 pointers : No

Read offset correction : 6
Overread into Lead-In and Lead-Out : No
Fill up missing offset samples with silence : Yes
Delete leading and trailing silent blocks : No
Null samples used in CRC calculations : Yes
Used interface : Native Win32 interface for Win NT & 2000
Gap handling : Not detected, thus appended to previous track

Used output format : User Defined Encoder
Selected bitrate : 320 kBit/s
Quality : High
Add ID3 tag : No
Command line compressor : C:\Archivos de programa\Exact Audio Copy\FLAC\FLAC.EXE
Additional command line options : -6 -V -T "ARTIST=%artist%" -T "TITLE=%title%" -T "ALBUM=%albumtitle%" -T "DATE=%year%" -T "TRACKNUMBER=%tracknr%" -T "GENRE=%genre%" -T "COMMENT=%comment%" -T "BAND=%albuminterpret%" -T "ALBUMARTIST=%albuminterpret%" -T "COMPOSER=%composer%" %haslyrics%–tag-from-file=LYRICS="%lyricsfile%"%haslyrics% -T "DISCNUMBER=%cdnumber%" -T "TOTALDISCS=%totalcds%" -T "TOTALTRACKS=%numtracks%" %hascover%–picture="%coverfile%"%hascover% %source% -o %dest%


TOC of the extracted CD

Track | Start | Length | Start sector | End sector
––––––––––––––––––––––––––––-
1 | 0:00.32 | 2:26.43 | 32 | 11024
2 | 2:27.00 | 5:03.20 | 11025 | 33769
3 | 7:30.20 | 4:02.00 | 33770 | 51919
4 | 11:32.20 | 2:40.45 | 51920 | 63964
5 | 14:12.65 | 4:53.05 | 63965 | 85944
6 | 19:05.70 | 5:17.55 | 85945 | 109774
7 | 24:23.50 | 2:40.60 | 109775 | 121834
8 | 27:04.35 | 4:37.50 | 121835 | 142659
9 | 31:42.10 | 3:13.17 | 142660 | 157151
10 | 34:55.27 | 3:58.58 | 157152 | 175059
11 | 38:54.10 | 3:00.65 | 175060 | 188624
12 | 41:55.00 | 3:20.52 | 188625 | 203676
13 | 45:15.52 | 5:47.68 | 203677 | 229769
14 | 51:03.45 | 3:44.15 | 229770 | 246584
15 | 54:47.60 | 4:47.55 | 246585 | 268164
16 | 59:35.40 | 3:27.15 | 268165 | 283704
17 | 63:02.55 | 4:43.55 | 283705 | 304984
18 | 67:46.35 | 4:15.70 | 304985 | 324179


Track 1

Filename E:\MUSIC\My Music\Mercedes Sosa - En Argentina\CD\01 Drume Negrita.wav

Peak level 97.1 %
Extraction speed 1.7 X
Track quality 100.0 %
Test CRC 43C98727
Copy CRC 43C98727
Accurately ripped (confidence 7) [CE3A1C52] (AR v1)
Copy OK

Track 2

Filename E:\MUSIC\My Music\Mercedes Sosa - En Argentina\CD\02 Sueño con Serpientes.wav

Peak level 100.0 %
Extraction speed 2.1 X
Track quality 100.0 %
Test CRC EB0EDDBB
Copy CRC EB0EDDBB
Accurately ripped (confidence 7) [C400C5A8] (AR v1)
Copy OK

Track 3

Filename E:\MUSIC\My Music\Mercedes Sosa - En Argentina\CD\03 María Va.wav

Peak level 74.7 %
Extraction speed 1.9 X
Track quality 99.9 %
Test CRC 21474218
Copy CRC 21474218
Accurately ripped (confidence 7) [2B654DBD] (AR v1)
Copy OK

Track 4

Filename E:\MUSIC\My Music\Mercedes Sosa - En Argentina\CD\04 Al Jardín de la República.wav

Peak level 92.4 %
Extraction speed 2.2 X
Track quality 100.0 %
Test CRC BC4098FD
Copy CRC BC4098FD
Accurately ripped (confidence 7) [3DEDE763] (AR v1)
Copy OK

Track 5

Filename E:\MUSIC\My Music\Mercedes Sosa - En Argentina\CD\05 Gracias a la Vida.wav

Peak level 100.0 %
Extraction speed 2.6 X
Track quality 100.0 %
Test CRC 1AB4FF77
Copy CRC 1AB4FF77
Accurately ripped (confidence 7) [001303C6] (AR v1)
Copy OK

Track 6

Filename E:\MUSIC\My Music\Mercedes Sosa - En Argentina\CD\06 Alfonsina y el Mar.wav

Peak level 96.2 %
Extraction speed 2.4 X
Track quality 99.9 %
Test CRC 3EEE1335
Copy CRC 3EEE1335
Accurately ripped (confidence 7) [6EE678F5] (AR v1)
Copy OK

Track 7

Filename E:\MUSIC\My Music\Mercedes Sosa - En Argentina\CD\07 Como la Cigarra.wav

Peak level 75.5 %
Extraction speed 2.6 X
Track quality 100.0 %
Test CRC 3D25A8D8
Copy CRC 3D25A8D8
Accurately ripped (confidence 7) [B448291D] (AR v1)
Copy OK

Track 8

Filename E:\MUSIC\My Music\Mercedes Sosa - En Argentina\CD\08 Solo le Pido a Díos.wav

Peak level 100.0 %
Extraction speed 3.0 X
Track quality 100.0 %
Test CRC 2E1FF453
Copy CRC 2E1FF453
Accurately ripped (confidence 7) [7041F7B8] (AR v1)
Copy OK

Track 9

Filename E:\MUSIC\My Music\Mercedes Sosa - En Argentina\CD\09 La Flor Azul.wav

Peak level 96.2 %
Extraction speed 2.2 X
Track quality 99.9 %
Test CRC D74688C4
Copy CRC D74688C4
Accurately ripped (confidence 7) [78E7BC1E] (AR v1)
Copy OK

Track 10

Filename E:\MUSIC\My Music\Mercedes Sosa - En Argentina\CD\10 Los Hermanos.wav

Peak level 74.7 %
Extraction speed 3.2 X
Track quality 100.0 %
Test CRC CAF9F8A3
Copy CRC CAF9F8A3
Accurately ripped (confidence 7) [C259D3A3] (AR v1)
Copy OK

Track 11

Filename E:\MUSIC\My Music\Mercedes Sosa - En Argentina\CD\11 La Arenosa.wav

Peak level 99.0 %
Extraction speed 3.0 X
Track quality 100.0 %
Test CRC 1BBD6FFB
Copy CRC 1BBD6FFB
Accurately ripped (confidence 7) [A158E4E7] (AR v1)
Copy OK

Track 12

Filename E:\MUSIC\My Music\Mercedes Sosa - En Argentina\CD\12 Años.wav

Peak level 64.3 %
Extraction speed 3.2 X
Track quality 100.0 %
Test CRC 45BCCFDD
Copy CRC 45BCCFDD
Accurately ripped (confidence 7) [D0CA2128] (AR v1)
Copy OK

Track 13

Filename E:\MUSIC\My Music\Mercedes Sosa - En Argentina\CD\13 Los Mareados.wav

Peak level 87.6 %
Extraction speed 2.9 X
Track quality 99.9 %
Test CRC 158CD0D9
Copy CRC 158CD0D9
Accurately ripped (confidence 7) [41E032DA] (AR v1)
Copy OK

Track 14

Filename E:\MUSIC\My Music\Mercedes Sosa - En Argentina\CD\14 Cuando ya me Empiece a Quedar Solo.wav

Peak level 83.7 %
Extraction speed 3.5 X
Track quality 100.0 %
Test CRC 6F87CDA8
Copy CRC 6F87CDA8
Accurately ripped (confidence 6) [35CC0478] (AR v1)
Copy OK

Track 15

Filename E:\MUSIC\My Music\Mercedes Sosa - En Argentina\CD\15 Volver a los 17.wav

Peak level 90.5 %
Extraction speed 3.6 X
Track quality 100.0 %
Test CRC 1B165901
Copy CRC 1B165901
Accurately ripped (confidence 7) [517D2E34] (AR v1)
Copy OK

Track 16

Filename E:\MUSIC\My Music\Mercedes Sosa - En Argentina\CD\16 Fuego en Anymana.wav

Peak level 100.0 %
Extraction speed 2.9 X
Track quality 100.0 %
Test CRC A8ED7D49
Copy CRC A8ED7D49
Accurately ripped (confidence 6) [EB63BBBA] (AR v1)
Copy OK

Track 17

Filename E:\MUSIC\My Music\Mercedes Sosa - En Argentina\CD\17 Polleritas - Pollerita Colorada, Carnavalito del Duende, Pollerita.wav

Peak level 100.0 %
Extraction speed 4.0 X
Track quality 100.0 %
Test CRC ABDF37E9
Copy CRC ABDF37E9
Accurately ripped (confidence 5) [10F3BA76] (AR v1)
Copy OK

Track 18

Filename E:\MUSIC\My Music\Mercedes Sosa - En Argentina\CD\18 Canción con Todos.wav

Peak level 100.0 %
Extraction speed 4.0 X
Track quality 100.0 %
Test CRC BD8988A7
Copy CRC BD8988A7
Accurately ripped (confidence 7) [26268ECB] (AR v1)
Copy OK


All tracks accurately ripped

No errors occurred

End of status report

==== Log checksum EFE0326F22B68E1F8033EE5C8098042925FF67BA965371CAB3EA78CFA0E3CCFC ====