Tags
Language
Tags

Metallica: MetOnTour 2016 (2016)

Posted By: v3122
Metallica: MetOnTour 2016 (2016)

Metallica: MetOnTour 2016 (2016)
6 x Flac(Image) + Cue + Log & MP3 CBR 320Kbps | ~ 3161 or 1190 Mb
Thrash Metal

~ AT&T Park, San Francisco, CA [06/02/2016] + Rasputin Music, Berkeley, CA [16/04/2016] + U.S. Bank Stadium, Minneapolis, MN [20/08/2016] + Global Citizen Festival at Great Lawn at Central Park, New York, NY [24/09/2016] + Webster Hall, New York, NY [27/09/2016] + The 30th Annual Bridge School Benefit at Shoreline Amphitheater, Mountain View, CA [22/10/2016] ~

Metallica is an American heavy metal band. The band was formed in 1981 in Los Angeles, California, by drummer Lars Ulrich and vocalist/guitarist James Hetfield, and has been based in San Francisco, California for most of its career. The group's fast tempos, instrumentals and aggressive musicianship made them one of the founding "big four" bands of thrash metal, alongside Megadeth, Anthrax and Slayer. Metallica's current lineup comprises founding members Hetfield and Ulrich, longtime lead guitarist Kirk Hammett and bassist Robert Trujillo. Guitarist Dave Mustaine (who went on to form Megadeth) and bassists Ron McGovney, Cliff Burton and Jason Newsted are former members of the band.

Metallica earned a growing fan base in the underground music community and won critical acclaim with its first five albums. The band's third album, Master of Puppets (1986), was described as one of the heaviest and most influential thrash metal albums; its eponymous fifth album, Metallica (1991), the band's first to root predominantly in heavy metal, appealed to a more mainstream audience, achieving substantial commercial success and selling over 16 million copies in the United States to date, making it the best-selling album of the SoundScan era. After experimenting with different genres and directions in subsequent releases, the band returned to its thrash metal roots with the release of its ninth album, Death Magnetic (2008), which drew similar praise to that of the band's earlier albums.

In 2000, Metallica led the case against the peer-to-peer file sharing service Napster, in which the band and several other artists filed lawsuits against the service for sharing their copyright-protected material without consent; after reaching a settlement, Napster became a pay-to-use service in 2003. Metallica was the subject of the acclaimed 2004 documentary film Some Kind of Monster, which documented the troubled production of the band's eighth album, St. Anger (2003), and the internal struggles within the band at the time. In 2009, Metallica was inducted into the Rock and Roll Hall of Fame. The band wrote the screenplay for and starred in the 2013 IMAX concert film Metallica: Through the Never, in which the band performed live against a fictional thriller storyline.

Metallica has released ten studio albums, four live albums, a cover album, five extended plays, 37 singles and 39 music videos. The band has won nine Grammy Awards from 23 nominations, and its last six studio albums (beginning with Metallica) have consecutively debuted at number one on the Billboard 200. Metallica ranks as one of the most commercially successful bands of all time, having sold over 125 million albums worldwide as of 2018. Metallica has been listed as one of the greatest artists of all time by magazines such as Rolling Stone, which ranked them at no. 61 on its 100 Greatest Artists of All Time list. As of 2017, Metallica is the third best-selling music artist since Nielsen SoundScan began tracking sales in 1991, selling a total of 58 million albums in the United States…

~ wiki
Metallica: MetOnTour 2016 (2016)

Metallica: MetOnTour 2016 (2016):

[06/02/2016] AT&T Park, San Francisco, CA:

[01] Creeping Death [06:45]
[02] For Whom The Bell Tolls [04:34]
[03] Fuel [05:09]
[04] King Nothing [05:32]
[05] Ride The Lightning [07:03]
[06] Kirk Solo #1 [01:21]
[07] The Unforgiven [06:52]
[08] The Memory Remains [05:06]
[09] Welcome Home (Sanitarium) [07:58]
[10] Sad But True [05:42]
[11] Bass Solo [01:44]
[12] Wherever I May Roam [06:40]
[13] One [08:29]
[14] Master Of Puppets [08:27]
[15] Battery [06:13]
[16] Kirk Solo #2 [04:04]
[17] Fade To Black [08:11]
[18] Seek And Destroy [07:59]
[19] Whiskey In The Jar [07:56]
[20] Nothing Else Matters [05:55]
[21] Enter Sandman [08:49]

foobar2000 1.4 / Dynamic Range Meter 1.1.1
log date: 2019-08-04 12:03:17

––––––––––––––––––––––––––––––––––––––––
Analyzed: Metallica / [06/02/2016] AT&T Park, San Francisco, CA
––––––––––––––––––––––––––––––––––––––––

DR Peak RMS Duration Track
––––––––––––––––––––––––––––––––––––––––
DR7 0.00 dB -7.92 dB 6:44 01-Creeping Death
DR8 0.00 dB -8.99 dB 4:34 02-For Whom The Bell Tolls
DR7 0.00 dB -9.30 dB 5:08 03-Fuel
DR8 0.00 dB -9.49 dB 5:31 04-King Nothing
DR8 -0.01 dB -9.33 dB 7:03 05-Ride The Lightning
DR10 -2.14 dB -16.81 dB 1:20 06-Kirk Solo #1
DR9 0.00 dB -10.95 dB 6:52 07-The Unforgiven
DR9 0.00 dB -10.92 dB 5:05 08-The Memory Remains
DR8 0.00 dB -10.60 dB 7:57 09-Welcome Home (Sanitarium)
DR8 0.00 dB -9.53 dB 5:42 10-Sad But True
DR8 -3.85 dB -14.79 dB 1:44 11-Bass Solo
DR8 0.00 dB -9.27 dB 6:39 12-Wherever I May Roam
DR8 -0.01 dB -10.46 dB 8:28 13-One
DR8 0.00 dB -9.49 dB 8:26 14-Master Of Puppets
DR7 0.00 dB -10.06 dB 6:13 15-Battery
DR11 -0.89 dB -16.16 dB 4:03 16-Kirk Solo #2
DR8 -0.07 dB -9.99 dB 8:10 17-Fade To Black
DR8 0.00 dB -9.48 dB 7:58 18-Seek And Destroy
DR8 0.00 dB -10.84 dB 7:56 19-Whiskey In The Jar
DR8 -0.07 dB -10.94 dB 5:54 20-Nothing Else Matters
DR8 0.00 dB -10.32 dB 8:49 21-Enter Sandman
––––––––––––––––––––––––––––––––––––––––

Number of tracks: 21
Official DR value: DR8

Samplerate: 44100 Hz
Channels: 2
Bits per sample: 16
Bitrate: 811 kbps
Codec: FLAC
================================================================================



[16/04/2016] Rasputin Music, Berkeley, CA:

[01] Helpless [03:17]
[02] Hit The Lights [04:07]
[03] The Four Horsemen [06:27]
[04] Ride The Lightning [07:39]
[05] Kirk Solo [00:36]
[06] Fade To Black [08:21]
[07] Jump In The Fire [04:47]
[08] For Whom The Bell Tolls [05:36]
[09] Creeping Death [06:43]
[10] Metal Militia [06:35]

foobar2000 1.4 / Dynamic Range Meter 1.1.1
log date: 2019-08-04 12:03:33

––––––––––––––––––––––––––––––––––––––––
Analyzed: Metallica / [16/04/2016] Rasputin Music, Berkeley, CA
––––––––––––––––––––––––––––––––––––––––

DR Peak RMS Duration Track
––––––––––––––––––––––––––––––––––––––––
DR7 0.00 dB -8.76 dB 3:17 01-Helpless
DR7 0.00 dB -8.44 dB 4:07 02-Hit The Lights
DR8 0.00 dB -9.38 dB 6:27 03-The Four Horsemen
DR7 0.00 dB -9.04 dB 7:39 04-Ride The Lightning
DR9 -5.56 dB -18.19 dB 0:36 05-Kirk Solo
DR7 0.00 dB -10.29 dB 8:21 06-Fade To Black
DR8 0.00 dB -8.89 dB 4:47 07-Jump In The Fire
DR8 0.00 dB -10.30 dB 5:36 08-For Whom The Bell Tolls
DR7 0.00 dB -8.66 dB 6:43 09-Creeping Death
DR8 -0.02 dB -10.12 dB 6:35 10-Metal Militia
––––––––––––––––––––––––––––––––––––––––

Number of tracks: 10
Official DR value: DR8

Samplerate: 44100 Hz
Channels: 2
Bits per sample: 16
Bitrate: 851 kbps
Codec: FLAC
================================================================================



[20/08/2016] U.S. Bank Stadium, Minneapolis, MN:

[01] Creeping Death [06:39]
[02] For Whom The Bell Tolls [04:38]
[03] Fuel [04:20]
[04] King Nothing [06:33]
[05] The Memory Remains [05:13]
[06] The Unforgiven [06:53]
[07] Leper Messiah [06:58]
[08] Kirk Solo #1 [02:08]
[09] Welcome Home (Sanitarium) [06:57]
[10] Sad But True [06:49]
[11] Bass Solo [01:45]
[12] Wherever I May Roam [06:43]
[13] One [08:32]
[14] Master Of Puppets [08:37]
[15] Battery [05:29]
[16] Kirk Solo #2 [03:17]
[17] Fade To Black [08:32]
[18] Seek And Destroy [08:43]
[19] Hardwired [03:27]
[20] Whiskey In The Jar [06:38]
[21] Nothing Else Matters [05:58]
[22] Enter Sandman [08:45]

foobar2000 1.4 / Dynamic Range Meter 1.1.1
log date: 2019-08-04 12:03:58

––––––––––––––––––––––––––––––––––––––––
Analyzed: Metallica / [20/08/2016] U.S. Bank Stadium, Minneapolis, MN
––––––––––––––––––––––––––––––––––––––––

DR Peak RMS Duration Track
––––––––––––––––––––––––––––––––––––––––
DR7 -0.42 dB -8.43 dB 6:39 01-Creeping Death
DR7 -0.29 dB -9.07 dB 4:38 02-For Whom The Bell Tolls
DR8 -0.50 dB -10.14 dB 4:20 03-Fuel
DR9 -0.57 dB -11.53 dB 6:33 04-King Nothing
DR9 -0.46 dB -12.12 dB 5:13 05-The Memory Remains
DR7 -0.59 dB -10.06 dB 6:53 06-The Unforgiven
DR9 -0.61 dB -11.64 dB 6:58 07-Leper Messiah
DR10 -4.70 dB -16.65 dB 2:08 08-Kirk Solo #1
DR8 -0.56 dB -11.06 dB 6:57 09-Welcome Home (Sanitarium)
DR8 -0.45 dB -10.51 dB 6:49 10-Sad But True
DR11 -1.81 dB -17.16 dB 1:45 11-Bass Solo
DR8 -0.54 dB -10.51 dB 6:43 12-Wherever I May Roam
DR8 -0.49 dB -11.48 dB 8:32 13-One
DR8 -0.63 dB -10.35 dB 8:37 14-Master Of Puppets
DR8 -0.61 dB -11.27 dB 5:29 15-Battery
DR12 -3.00 dB -16.71 dB 3:17 16-Kirk Solo #2
DR7 -0.58 dB -10.51 dB 8:32 17-Fade To Black
DR8 -0.58 dB -10.56 dB 8:43 18-Seek And Destroy
DR7 -1.27 dB -10.06 dB 3:27 19-Hardwired
DR8 -0.60 dB -11.11 dB 6:38 20-Whiskey In The Jar
DR8 -0.65 dB -11.17 dB 5:58 21-Nothing Else Matters
DR8 -0.59 dB -11.10 dB 8:45 22-Enter Sandman
––––––––––––––––––––––––––––––––––––––––

Number of tracks: 22
Official DR value: DR8

Samplerate: 44100 Hz
Channels: 2
Bits per sample: 16
Bitrate: 795 kbps
Codec: FLAC
================================================================================



[24/09/2016] Global Citizen Festival at Great Lawn at Central Park, New York, NY:

[01] For Whom The Bell Tolls [05:00]
[02] Master Of Puppets [08:27]
[03] One [07:39]
[04] Nothing Else Matters [05:57]
[05] Enter Sandman [06:31]

foobar2000 1.4 / Dynamic Range Meter 1.1.1
log date: 2019-08-04 12:04:47

––––––––––––––––––––––––––––––––––––––––
Analyzed: Metallica / [22/10/2016] The 30th Annual Bridge School Benefit at Shoreline Amphitheater, Mountain View, CA
––––––––––––––––––––––––––––––––––––––––

DR Peak RMS Duration Track
––––––––––––––––––––––––––––––––––––––––
DR7 0.00 dB -9.71 dB 7:12 01-Whiskey In The Jar
DR7 0.00 dB -11.09 dB 4:35 02-When A Blind Man Cries
DR7 0.00 dB -8.92 dB 5:09 03-Hero Of The Day
DR7 0.00 dB -11.16 dB 5:58 04-Bleeding Me
DR7 0.00 dB -9.53 dB 4:27 05-Clampdown
DR10 0.00 dB -13.28 dB 5:42 06-Enter Sandman
DR7 0.00 dB -10.43 dB 6:09 07-Hardwired
DR7 0.00 dB -8.58 dB 7:17 08-Seek And Destroy
DR7 0.00 dB -9.22 dB 5:56 09-Mr. Soul
––––––––––––––––––––––––––––––––––––––––

Number of tracks: 9
Official DR value: DR7

Samplerate: 44100 Hz
Channels: 2
Bits per sample: 16
Bitrate: 853 kbps
Codec: FLAC
================================================================================



[27/09/2016] Webster Hall, New York, NY:

[01] Breadfan [04:31]
[02] Holier Than Thou [03:38]
[03] Battery [04:19]
[04] Harvester Of Sorrow [06:34]
[05] Kirk Solo [01:55]
[06] Fade To Black [07:20]
[07] Moth Into Flame [07:09]
[08] Sad But True [06:08]
[09] Orion [08:23]
[10] One [08:10]
[11] Master Of Puppets [08:35]
[12] For Whom The Bell Tolls [04:53]
[13] Enter Sandman [06:46]
[14] Encore Jam [01:53]
[15] Whiskey In The Jar [05:41]
[16] Hardwired [03:14]
[17] Seek And Destroy [10:27]

foobar2000 1.4 / Dynamic Range Meter 1.1.1
log date: 2019-08-04 12:04:59

––––––––––––––––––––––––––––––––––––––––
Analyzed: Metallica / [24/09/16] Global Citizen Festival at Great Lawn at Central Park, New York, NY
––––––––––––––––––––––––––––––––––––––––

DR Peak RMS Duration Track
––––––––––––––––––––––––––––––––––––––––
DR7 -0.72 dB -9.70 dB 5:00 01-For Whom The Bell Tolls
DR7 -0.54 dB -9.40 dB 8:27 02-Master Of Puppets
DR7 -0.52 dB -10.06 dB 7:39 03-One
DR7 -0.79 dB -10.83 dB 5:57 04-Nothing Else Matters
DR7 -0.75 dB -9.26 dB 6:31 05-Enter Sandman
––––––––––––––––––––––––––––––––––––––––

Number of tracks: 5
Official DR value: DR7

Samplerate: 44100 Hz
Channels: 2
Bits per sample: 16
Bitrate: 859 kbps
Codec: FLAC
================================================================================



[22/10/2016] The 30th Annual Bridge School Benefit at Shoreline Amphitheater, Mountain View, CA:

[01] Whiskey In The Jar [07:12]
[02] When A Blind Man Cries [04:35]
[03] Hero Of The Day [05:09]
[04] Bleeding Me [05:58]
[05] Clampdown [04:27]
[06] Enter Sandman [05:42]
[07] Hardwired [06:09]
[08] Seek And Destroy [07:17]
[09] Mr. Soul [05:56]

foobar2000 1.4 / Dynamic Range Meter 1.1.1
log date: 2019-08-04 12:05:18

––––––––––––––––––––––––––––––––––––––––
Analyzed: Metallica / [27/09/2016] Webster Hall, New York, NY
––––––––––––––––––––––––––––––––––––––––

DR Peak RMS Duration Track
––––––––––––––––––––––––––––––––––––––––
DR7 -0.26 dB -8.62 dB 4:31 01-Breadfan
DR7 -0.12 dB -7.58 dB 3:38 02-Holier Than Thou
DR8 -0.26 dB -8.75 dB 4:19 03-Battery
DR7 -0.23 dB -8.24 dB 6:34 04-Harvester Of Sorrow
DR10 -0.33 dB -11.65 dB 1:55 05-Kirk Solo
DR7 -0.22 dB -8.59 dB 7:20 06-Fade To Black
DR7 -0.18 dB -8.46 dB 7:09 07-Moth Into Flame
DR7 -0.23 dB -8.44 dB 6:08 08-Sad But True
DR6 -0.20 dB -8.13 dB 8:23 09-Orion
DR7 -0.17 dB -8.49 dB 8:10 10-One
DR6 -0.27 dB -7.79 dB 8:35 11-Master Of Puppets
DR7 -0.21 dB -8.23 dB 4:53 12-For Whom The Bell Tolls
DR6 -0.24 dB -7.66 dB 6:46 13-Enter Sandman
DR9 -0.33 dB -14.33 dB 1:53 14-Encore Jam
DR8 -0.24 dB -8.89 dB 5:41 15-Whiskey In The Jar
DR7 -0.19 dB -7.78 dB 3:14 16-Hardwired
DR7 -0.20 dB -8.88 dB 10:27 17-Seek And Destroy
––––––––––––––––––––––––––––––––––––––––

Number of tracks: 17
Official DR value: DR7

Samplerate: 44100 Hz
Channels: 2
Bits per sample: 16
Bitrate: 978 kbps
Codec: FLAC
================================================================================



All thanks go to the original releaser

Metallica in my Blog

Download Metallica: MetOnTour 2016 (2016):