Subcategories

Metallica - The Unforgiven II (1998) [3CD Set]

Posted By: v3122
Metallica - The Unforgiven II (1998) [3CD Set]

Metallica - The Unforgiven II (1998)
EAC | Flac(Image) + Cue + Log & MP3 CBR 320Kbps
Vertigo/PolyGram | Germany | ~ 504 or 165 Mb | Artwork(jpg) -> 6.12 Mb
Thrash Metal

"The Unforgiven" is a power ballad by American heavy metal band Metallica. It was released as the second single from their eponymous fifth album Metallica (also known as The Black Album). Though one of the slower tracks on the album, its chord progression is distinctly one of the heaviest. The song deals with the theme of the struggle of the individual against the efforts of those who would subjugate him.

The song has since spawned two sequels, in the form of "The Unforgiven II", from the album Reload, and "The Unforgiven III", from the album Death Magnetic…

~ wiki
Metallica - The Unforgiven II (1998):

Metallica - The Unforgiven II (1998) [3CD Set]

Tracklist CD1 - Part1, METCD 17/568551-2:

01. The unforgiven II (6:38)
02. Helpless (Live) (4:14)
03. The Four Horsemen (Live) (5:34)
04. Of Wolf And Man (Live) (5:17)

Exact Audio Copy V0.99 prebeta 5 from 4. May 2009

EAC extraction logfile from 16. September 2011, 8:48

Metallica / The Unforgiven II (Part One of a Three CD set)

Used drive : PLEXTOR DVDR PX-760A Adapter: 0 ID: 0

Read mode : Secure
Utilize accurate stream : Yes
Defeat audio cache : Yes
Make use of C2 pointers : No

Read offset correction : 30
Overread into Lead-In and Lead-Out : No
Fill up missing offset samples with silence : Yes
Delete leading and trailing silent blocks : No
Null samples used in CRC calculations : Yes
Used interface : Native Win32 interface for Win NT & 2000

Used output format : User Defined Encoder
Selected bitrate : 1024 kBit/s
Quality : High
Add ID3 tag : No
Command line compressor : C:\Program Files (x86)\Exact Audio Copy\Flac\flac.exe
Additional command line options : -8 -V %s


TOC of the extracted CD

Track | Start | Length | Start sector | End sector
––––––––––––––––––––––––––––-
1 | 0:00.00 | 6:38.07 | 0 | 29856
2 | 6:38.07 | 4:14.00 | 29857 | 48906
3 | 10:52.07 | 5:34.08 | 48907 | 73964
4 | 16:26.15 | 5:16.50 | 73965 | 97714


Range status and errors

Selected range

Filename D:\bki71\Metallica\Metallica - The Unforgiven II (Part One of a Three CD set).wav

Peak level 100.0 %
Range quality 100.0 %
Test CRC 3ED73A71
Copy CRC 3ED73A71
Copy OK

No errors occurred


AccurateRip summary

Track 1 accurately ripped (confidence 17) [28B28BEF]
Track 2 accurately ripped (confidence 18) [23471858]
Track 3 accurately ripped (confidence 19) [3ED5D918]
Track 4 accurately ripped (confidence 19) [641DDFE0]

All tracks accurately ripped

End of status report


[CUETools log; Date: 07.09.2019 8:25:58; Version: 2.1.4]
[AccurateRip ID: 0003d24c-000f1e97-2e051604] found.
Track [ CRC | V2 ] Status
01 [28b28bef|b202d1da] (21+13/34) Accurately ripped
02 [23471858|8e2619b5] (22+14/36) Accurately ripped
03 [3ed5d918|b68823b3] (23+14/37) Accurately ripped
04 [641ddfe0|106b021f] (23+14/37) Accurately ripped

Track Peak [ CRC32 ] [W/O NULL] [ LOG ]
– 99,9 [3ED73A71] [5B9153C8] CRC32
01 99,9 [DA4E8272] [F14AC0CA]
02 99,9 [F9C44568] [922C7DFC]
03 99,9 [6CF4BDE0] [FA75EC8E]
04 99,9 [DC01C6EE] [3577670B]


Metallica - The Unforgiven II (1998) [3CD Set]

Tracklist CD2 - Part 2, METDD 17/568557-2:

01. The Unforgiven II (6:38)
02. The Thing That Should Not Be (Live) (7:31)
03. The Memory Remains (Live) (4:15)
04. King Nothing (Live) (6:20)

Exact Audio Copy V0.99 prebeta 5 from 4. May 2009

EAC extraction logfile from 16. September 2011, 9:04

Metallica / The Unforgiven II (Part Two of a Three CD set)

Used drive : PLEXTOR DVDR PX-760A Adapter: 0 ID: 0

Read mode : Secure
Utilize accurate stream : Yes
Defeat audio cache : Yes
Make use of C2 pointers : No

Read offset correction : 30
Overread into Lead-In and Lead-Out : No
Fill up missing offset samples with silence : Yes
Delete leading and trailing silent blocks : No
Null samples used in CRC calculations : Yes
Used interface : Native Win32 interface for Win NT & 2000

Used output format : User Defined Encoder
Selected bitrate : 1024 kBit/s
Quality : High
Add ID3 tag : No
Command line compressor : C:\Program Files (x86)\Exact Audio Copy\Flac\flac.exe
Additional command line options : -8 -V %s


TOC of the extracted CD

Track | Start | Length | Start sector | End sector
––––––––––––––––––––––––––––-
1 | 0:00.00 | 6:38.07 | 0 | 29856
2 | 6:38.07 | 7:31.18 | 29857 | 63699
3 | 14:09.25 | 4:15.02 | 63700 | 82826
4 | 18:24.27 | 6:20.30 | 82827 | 111356


Range status and errors

Selected range

Filename D:\bki71\Metallica\Metallica - The Unforgiven II (Part Two of a Three CD set).wav

Peak level 100.0 %
Range quality 100.0 %
Test CRC FB7747BB
Copy CRC FB7747BB
Copy OK

No errors occurred


AccurateRip summary

Track 1 accurately ripped (confidence 11) [F2E8BDDE]
Track 2 accurately ripped (confidence 12) [E2C7F81A]
Track 3 accurately ripped (confidence 12) [A34998EE]
Track 4 accurately ripped (confidence 12) [A1085E14]

All tracks accurately ripped

End of status report


[CUETools log; Date: 07.09.2019 8:27:11; Version: 2.1.4]
[AccurateRip ID: 000463fd-001160dc-1c05cc04] found.
Track [ CRC | V2 ] Status
01 [f2e8bdde|8dbd1b63] (13+11/24) Accurately ripped
02 [e2c7f81a|e5c24cdd] (14+13/27) Accurately ripped
03 [a34998ee|f06a7f4e] (14+13/27) Accurately ripped
04 [a1085e14|94c182ff] (13+13/26) Accurately ripped

Track Peak [ CRC32 ] [W/O NULL] [ LOG ]
– 99,9 [FB7747BB] [2E3E3B8F] CRC32
01 99,9 [E877449B] [5A89F3F2]
02 99,9 [CDDD7F53] [972D2164]
03 99,9 [77FAFF8E] [9BA0C285]
04 99,9 [0F68CE06] [1833654C]


Metallica - The Unforgiven II (1998) [3CD Set]

Tracklist CD3 - Part 3, METCX 17/568553-2:

01. The Unforgiven II (6:38)
02. No Remorse (Live) (4:53)
03. Am I Evil? (Live) (5:11)
04. The Unforgiven II (Demo) (7:13)

Exact Audio Copy V0.99 prebeta 5 from 4. May 2009

EAC extraction logfile from 16. September 2011, 9:16

Metallica / The Unforgiven II (Part Three of a Three CD set)

Used drive : PLEXTOR DVDR PX-760A Adapter: 0 ID: 0

Read mode : Secure
Utilize accurate stream : Yes
Defeat audio cache : Yes
Make use of C2 pointers : No

Read offset correction : 30
Overread into Lead-In and Lead-Out : No
Fill up missing offset samples with silence : Yes
Delete leading and trailing silent blocks : No
Null samples used in CRC calculations : Yes
Used interface : Native Win32 interface for Win NT & 2000

Used output format : User Defined Encoder
Selected bitrate : 1024 kBit/s
Quality : High
Add ID3 tag : No
Command line compressor : C:\Program Files (x86)\Exact Audio Copy\Flac\flac.exe
Additional command line options : -8 -V %s


TOC of the extracted CD

Track | Start | Length | Start sector | End sector
––––––––––––––––––––––––––––-
1 | 0:00.00 | 6:38.07 | 0 | 29856
2 | 6:38.07 | 4:52.45 | 29857 | 51801
3 | 11:30.52 | 5:11.23 | 51802 | 75149
4 | 16:42.00 | 7:12.67 | 75150 | 107616


Range status and errors

Selected range

Filename D:\bki71\Metallica\Metallica - The Unforgiven II (Part Three of a Three CD set).wav

Peak level 100.0 %
Range quality 100.0 %
Test CRC 54986A05
Copy CRC 54986A05
Copy OK

No errors occurred


AccurateRip summary

Track 1 accurately ripped (confidence 11) [7BE3B555]
Track 2 accurately ripped (confidence 11) [E1BD932E]
Track 3 accurately ripped (confidence 11) [7BF0F9FB]
Track 4 accurately ripped (confidence 11) [87ACD971]

All tracks accurately ripped

End of status report


[CUETools log; Date: 07.09.2019 8:28:17; Version: 2.1.4]
[AccurateRip ID: 000408ea-0010146e-1c059a04] found.
Track [ CRC | V2 ] Status
01 [7be3b555|f9d255e4] (13+10/28) Accurately ripped
02 [e1bd932e|47bdb36f] (13+11/29) Accurately ripped
03 [7bf0f9fb|0330111e] (13+11/29) Accurately ripped
04 [87acd971|f12f7bd0] (13+11/29) Accurately ripped
Offsetted by 1250:
01 [fc490105] (00/28) No match (V2 was not tested)
02 [75a0ca1f] (00/29) No match (V2 was not tested)
03 [e188a774] (00/29) No match (V2 was not tested)
04 [441993e7] (00/29) No match (V2 was not tested)

Track Peak [ CRC32 ] [W/O NULL] [ LOG ]
– 99,9 [54986A05] [9865BAFC] CRC32
01 99,9 [73F80D44] [21D9B65B]
02 99,9 [0F7D2D5D] [751D21C5]
03 99,9 [A109D201] [DA970583]
04 99,9 [0FCD1C06] [2C175782]


All thanks go to bki71

Metallica in my Blog

Download Metallica - The Unforgiven II (1998):