Subcategories

Michael E - The Sand The Diamond The Whisper (2016)

Posted By: gribovar
Michael E - The Sand The Diamond The Whisper (2016)

Michael E - The Sand The Diamond The Whisper (2016)
EAC Rip | FLAC (tracks+.cue+log) - 447 MB | MP3 CBR 320 kbps (LAME 3.93) - 167 MB | Covers - 52 MB
Genre: Chillout, Downtempo | RAR 3% Rec. | Label: Self-released

Michael E Frith had piano lessons as a young child but was really turned on to music in big way when Motown hit him like a ton of bricks in the early sixties, he was smitten and from that time on he’s had a love affair with music. He joined various cover bands and toured the Euro/American Navy and Air force bases playing keyboards and percussion and enjoyed a short stint with U.S. vocal group Johnny Johnson and the Bandwagon, who had a massive hit worldwide with "Breaking Down The Walls Of Heartache."
Michael started to compose and was enabled to fully realise the music in his mind when the digital/software age arrived, this allowed him to create full arrangements. With this evolution, he was free to conjure up wonderful sounds, haunting melodies and explore so many musical landscapes. Michael was well and truly hooked and it was a new beginning for him.
The Café Del Mar compilations were another major influence, he was hearing electronica mixed with more organic sounds. The music he was drawn to on these compilations had it’s roots in soul, jazz, classical and soundtrack music.
In 2006, Michael E was finally in a position to dedicate his life fully to the pursuit of his musical dream. When the chance came along he grasped it wholeheartedly and he has never looked back. His first release in the chilled/lounge genre was in 2006 and ever since has simply made up for lost time and on the way has gathered a loyal fan base.
Tracklist:
01. Faraway
02. Little Blue Planet
03. Ship To America
04. The Butterfly Effect
05. I Dream About You (Feat. Karen VR)
06. It's True
07. Space-Walker
08. La Nuit
09. So Many Colours
10. The Chosen One
11. Once Upon A Time
12. Sonata
13. Tannah Air (Feat. DJ Brahms)

Total time: 01:10:55

Exact Audio Copy V1.3 from 2. September 2016

Отчёт EAC об извлечении, выполненном 23. октября 2018, 19:14

Michael E / The Sand The Diamond The Whisper

Дисковод: PIONEER BD-RW BDR-211M Adapter: 1 ID: 0

Режим чтения : Достоверность
Использование точного потока : Да
Отключение кэша аудио : Да
Использование указателей C2 : Нет

Коррекция смещения при чтении : 667
Способность читать области Lead-in и Lead-out : Нет
Заполнение пропущенных сэмплов тишиной : Да
Удаление блоков с тишиной в начале и конце : Нет
При вычислениях CRC использовались нулевые сэмплы : Да
Интерфейс : Встроенный Win32-интерфейс для Win NT/2000
Обработка зазоров : Добавлено к предыдущему треку

Выходной формат : Пользовательский кодировщик
Выбранный битрейт : 1024 kBit/s
Качество : Высокий
Добавление ID3-тега : Нет
Утилита сжатия : N:\ПРОГРАММЫ\Exact Audio Copy\FLAC\FLAC.EXE
Дополнительные параметры : -6 -V -T "ARTIST=%artist%" -T "TITLE=%title%" -T "ALBUM=%albumtitle%" -T "DATE=%year%" -T "TRACKNUMBER=%tracknr%" -T "GENRE=%genre%" -T "COMMENT=%comment%" -T "BAND=%albuminterpret%" -T "ALBUMARTIST=%albuminterpret%" -T "COMPOSER=%composer%" %haslyrics%–tag-from-file=LYRICS="%lyricsfile%"%haslyrics% -T "DISCNUMBER=%cdnumber%" -T "TOTALDISCS=%totalcds%" -T "TOTALTRACKS=%numtracks%" %hascover%–picture="%coverfile%"%hascover% %source% -o %dest%


TOC извлечённого CD

Трек | Старт | Длительность | Начальный сектор | Конечный сектор
––––––––––––––––––––––––––––––––––-
1 | 0:00.00 | 5:12.00 | 0 | 23399
2 | 5:12.00 | 5:17.00 | 23400 | 47174
3 | 10:29.00 | 6:04.00 | 47175 | 74474
4 | 16:33.00 | 5:52.00 | 74475 | 100874
5 | 22:25.00 | 6:34.37 | 100875 | 130461
6 | 28:59.37 | 6:54.00 | 130462 | 161511
7 | 35:53.37 | 5:28.00 | 161512 | 186111
8 | 41:21.37 | 5:35.37 | 186112 | 211273
9 | 46:56.74 | 5:41.00 | 211274 | 236848
10 | 52:37.74 | 5:24.00 | 236849 | 261148
11 | 58:01.74 | 4:13.37 | 261149 | 280160
12 | 62:15.36 | 3:23.18 | 280161 | 295403
13 | 65:38.54 | 5:16.16 | 295404 | 319119


Трек 1

Имя файла N:\МУЗЫКА\Michael E\2016 - The Sand The Diamond The Whisper\01 Faraway.wav

Длина предзазора 0:00:02.00

Пиковый уровень 98.8 %
Скорость извлечения 4.9 X
Качество трека 100.0 %
CRC теста B526D320
CRC копии B526D320
Трек не обнаружен в базе AccurateRip
Копирование… OK

Трек 2

Имя файла N:\МУЗЫКА\Michael E\2016 - The Sand The Diamond The Whisper\02 Little Blue Planet.wav

Пиковый уровень 98.8 %
Скорость извлечения 5.5 X
Качество трека 100.0 %
CRC теста 836559BF
CRC копии 836559BF
Трек не обнаружен в базе AccurateRip
Копирование… OK

Трек 3

Имя файла N:\МУЗЫКА\Michael E\2016 - The Sand The Diamond The Whisper\03 Ship To America.wav

Пиковый уровень 98.8 %
Скорость извлечения 6.1 X
Качество трека 100.0 %
CRC теста 59DC54FC
CRC копии 59DC54FC
Трек не обнаружен в базе AccurateRip
Копирование… OK

Трек 4

Имя файла N:\МУЗЫКА\Michael E\2016 - The Sand The Diamond The Whisper\04 The Butterfly Effect.wav

Пиковый уровень 98.8 %
Скорость извлечения 6.6 X
Качество трека 100.0 %
CRC теста EF1DC798
CRC копии EF1DC798
Трек не обнаружен в базе AccurateRip
Копирование… OK

Трек 5

Имя файла N:\МУЗЫКА\Michael E\2016 - The Sand The Diamond The Whisper\05 I Dream About You (Feat. Karen VR).wav

Пиковый уровень 98.8 %
Скорость извлечения 7.2 X
Качество трека 100.0 %
CRC теста 7A792853
CRC копии 7A792853
Трек не обнаружен в базе AccurateRip
Копирование… OK

Трек 6

Имя файла N:\МУЗЫКА\Michael E\2016 - The Sand The Diamond The Whisper\06 It's True.wav

Пиковый уровень 98.8 %
Скорость извлечения 7.2 X
Качество трека 99.9 %
CRC теста 1D0932F3
CRC копии 1D0932F3
Трек не обнаружен в базе AccurateRip
Копирование… OK

Трек 7

Имя файла N:\МУЗЫКА\Michael E\2016 - The Sand The Diamond The Whisper\07 Space-walker.wav

Пиковый уровень 98.8 %
Скорость извлечения 7.2 X
Качество трека 99.9 %
CRC теста 61BBE841
CRC копии 61BBE841
Трек не обнаружен в базе AccurateRip
Копирование… OK

Трек 8

Имя файла N:\МУЗЫКА\Michael E\2016 - The Sand The Diamond The Whisper\08 La Nuit.wav

Пиковый уровень 98.8 %
Скорость извлечения 8.2 X
Качество трека 100.0 %
CRC теста 584F4293
CRC копии 584F4293
Трек не обнаружен в базе AccurateRip
Копирование… OK

Трек 9

Имя файла N:\МУЗЫКА\Michael E\2016 - The Sand The Diamond The Whisper\09 So Many Colours.wav

Пиковый уровень 98.8 %
Скорость извлечения 8.5 X
Качество трека 100.0 %
CRC теста 96A2ECDC
CRC копии 96A2ECDC
Трек не обнаружен в базе AccurateRip
Копирование… OK

Трек 10

Имя файла N:\МУЗЫКА\Michael E\2016 - The Sand The Diamond The Whisper\10 The Chosen One.wav

Пиковый уровень 98.8 %
Скорость извлечения 7.9 X
Качество трека 99.9 %
CRC теста 72014876
CRC копии 72014876
Трек не обнаружен в базе AccurateRip
Копирование… OK

Трек 11

Имя файла N:\МУЗЫКА\Michael E\2016 - The Sand The Diamond The Whisper\11 Once Upon A Time.wav

Пиковый уровень 98.8 %
Скорость извлечения 8.8 X
Качество трека 100.0 %
CRC теста 29B5BC52
CRC копии 29B5BC52
Трек не обнаружен в базе AccurateRip
Копирование… OK

Трек 12

Имя файла N:\МУЗЫКА\Michael E\2016 - The Sand The Diamond The Whisper\12 Sonata.wav

Пиковый уровень 98.8 %
Скорость извлечения 8.6 X
Качество трека 100.0 %
CRC теста 1F332CB5
CRC копии 1F332CB5
Трек не обнаружен в базе AccurateRip
Копирование… OK

Трек 13

Имя файла N:\МУЗЫКА\Michael E\2016 - The Sand The Diamond The Whisper\13 Tannah Air.wav

Пиковый уровень 95.6 %
Скорость извлечения 9.2 X
Качество трека 100.0 %
CRC теста 4C6544D8
CRC копии 4C6544D8
Трек не обнаружен в базе AccurateRip
Копирование… OK


Ни одного трека нет в базе AccurateRip

Ошибок не произошло

Конец отчёта

–– CUETools DB Plugin V2.1.6

[CTDB TOCID: U2ClLvhIVlqr58pNrEuMaUfzzVU-] disk not present in database
Submit result: U2ClLvhIVlqr58pNrEuMaUfzzVU- has been uploaded


==== Контрольная сумма отчёта 0FF0FEE7F9BA8B71C3C7BE9E10966EEA78FC86C7F05ABF1287BD1B6B9CDFBB31 ====

[CUETools log; Date: 18.11.2018 22:49:03; Version: 2.1.4]
[CTDB TOCID: U2ClLvhIVlqr58pNrEuMaUfzzVU-] found.
Track | CTDB Status
1 | (1/1) Accurately ripped
2 | (1/1) Accurately ripped
3 | (1/1) Accurately ripped
4 | (1/1) Accurately ripped
5 | (1/1) Accurately ripped
6 | (1/1) Accurately ripped
7 | (1/1) Accurately ripped
8 | (1/1) Accurately ripped
9 | (1/1) Accurately ripped
10 | (1/1) Accurately ripped
11 | (1/1) Accurately ripped
12 | (1/1) Accurately ripped
13 | (1/1) Accurately ripped
[AccurateRip ID: 002385a0-016215c0-c0109e0d] disk not present in database.

Track Peak [ CRC32 ] [W/O NULL] [ LOG ]
– 98,8 [C4550D7B] [39451E3B]
01 98,8 [B526D320] [80A4A883] CRC32
02 98,8 [836559BF] [DDCF8517] CRC32
03 98,8 [59DC54FC] [3150C258] CRC32
04 98,8 [EF1DC798] [823C8A50] CRC32
05 98,8 [7A792853] [647820A6] CRC32
06 98,8 [1D0932F3] [254873F1] CRC32
07 98,8 [61BBE841] [66BFEEC5] CRC32
08 98,8 [584F4293] [A581A379] CRC32
09 98,8 [96A2ECDC] [F7CBB97E] CRC32
10 98,8 [72014876] [B6B93028] CRC32
11 98,8 [29B5BC52] [563B2D16] CRC32
12 98,8 [1F332CB5] [6FAD900F] CRC32
13 95,6 [4C6544D8] [3B9BE4C5] CRC32

Thanks to Мурзичек

See also:
Michael E - Lush (2018)
Michael E - A Pleasant Interlude (2018)
Michael E - Cotton Blossom (2018)
Michael E & Sarai Usry - Love Songs (2018)