Tags
Language
Tags

Michael Franks - Tiger In The Rain (1979) {Japan SHM-CD}

Posted By: tiburon
Michael Franks - Tiger In The Rain (1979) {Japan SHM-CD}

Michael Franks - Tiger In The Rain (1979) {Japan SHM-CD}
EAC 1.0b3 | FLAC tracks level 8 | Cue+Log+M3U | Full Scans 600dpi | 256MB + 5% Recovery
MP3 CBR 320 Kbps | 98MB + 5% Recovery
Genre: Jazz, Vocal Jazz
Michael Franks - Tiger In The Rain (1979) {Japan SHM-CD}

Strangely enough, Tiger in the Rain would have been a smoother transition from Sleeping Gypsy, just as Burchfield Nines would have been a more natural follow-up to The Art of Tea. For the first time, Michael Franks made an album completely without the production team of Tommy LiPuma, Al Schmitt and Lee Hershberg, employing instead John Simon (the Band, Janis Joplin, Leonard Cohen). The recording boasts a large number of celebrated horn and string players, as well as jazz luminaries Ron Carter, Bucky Pizzarelli, Kenny Barron, Mike Mainieri and Flora Purim. Lush, romantic and more experimental than previous efforts, Tiger in the Rain has a seriousness of purpose that faithfully echoes that of Sleeping Gypsy, with less of a Brazilian feel and overall a more somber tone of lost love.
Track List
1. Sanpaku (04:10)
2. When It's Over (03:03)
3. Living on the Outside (05:36)
4. Hideaway (04:09)
5. Jardin Botanico (03:32)
6. Underneath The Apple Tree (05:52)
7. Tiger In The Rain (04:17)
8. Satisfaction Guaranteed (03:39)
9. Lifeline (06:10)

musicians
Michael Franks - vocals
Kenny Barron - Piano
Rubens Bassini - Percussion
Crusher Bennett - Congas
Herb Bushler - Bass
Joe Caro - El. & Ac. Guitars
Ron Carter - Acoustic Bass
Dominic Cortese - Concertina
Paul Griffin - Organ
Bob Leinbach - Organ
Dave Liebman - Flute
Mike Mainieri - Vibes
Rick Marotta - Drums
Bucky Pizzarelly - El. & Ac. Guitars
Seldon Powell - T. & S. Saxes
Flora Purim - Background Vocal
Ben Riley - Drums
Dave Sanborn - Alto Sax, (Horns)
Lou Soloff - Piccolo Trumpet
Buddy Williams - Drums
George Young - Tenor Sax, Flute, (Horns)

Produced by John Simon


Exact Audio Copy V1.0 beta 3 from 29. August 2011

EAC extraction logfile from 11. November 2016, 1:32

Michael Franks / Tiger In The Rain

Used drive : HL-DT-STDVDRAM GH24NS90 Adapter: 1 ID: 0

Read mode : Secure
Utilize accurate stream : Yes
Defeat audio cache : Yes
Make use of C2 pointers : No

Read offset correction : 6
Overread into Lead-In and Lead-Out : No
Fill up missing offset samples with silence : Yes
Delete leading and trailing silent blocks : No
Null samples used in CRC calculations : Yes
Used interface : Native Win32 interface for Win NT & 2000
Gap handling : Appended to previous track

Used output format : User Defined Encoder
Selected bitrate : 1024 kBit/s
Quality : High
Add ID3 tag : No
Command line compressor : C:\Program Files (x86)\FLAC\metaflac.exe
Additional command line options : -8


TOC of the extracted CD

Track | Start | Length | Start sector | End sector
––––––––––––––––––––––––––––-
1 | 0:00.00 | 4:14.47 | 0 | 19096
2 | 4:14.47 | 3:05.49 | 19097 | 33020
3 | 7:20.21 | 5:37.71 | 33021 | 58366
4 | 12:58.17 | 4:09.39 | 58367 | 77080
5 | 17:07.56 | 3:33.58 | 77081 | 93113
6 | 20:41.39 | 5:52.46 | 93114 | 119559
7 | 26:34.10 | 4:19.74 | 119560 | 139058
8 | 30:54.09 | 3:39.49 | 139059 | 155532
9 | 34:33.58 | 6:10.62 | 155533 | 183344


Track 1

Filename C:\Exact Audio Copy\Michael Franks\Tiger In The Rain\01. Sanpaku.wav

Pre-gap length 0:00:02.00

Peak level 95.4 %
Extraction speed 0.9 X
Track quality 99.9 %
Test CRC 1B13C3EB
Copy CRC 1B13C3EB
Accurately ripped (confidence 3) [6901C901] (AR v2)
Copy OK

Track 2

Filename C:\Exact Audio Copy\Michael Franks\Tiger In The Rain\02. When It's Over.wav

Pre-gap length 0:00:02.14

Peak level 100.0 %
Extraction speed 1.1 X
Track quality 100.0 %
Test CRC 21D2B125
Copy CRC 21D2B125
Accurately ripped (confidence 3) [57178414] (AR v2)
Copy OK

Track 3

Filename C:\Exact Audio Copy\Michael Franks\Tiger In The Rain\03. Living On The Inside.wav

Pre-gap length 0:00:01.33

Peak level 100.0 %
Extraction speed 1.2 X
Track quality 99.9 %
Test CRC 0B83847C
Copy CRC 0B83847C
Accurately ripped (confidence 3) [AD4A06BE] (AR v2)
Copy OK

Track 4

Filename C:\Exact Audio Copy\Michael Franks\Tiger In The Rain\04. Hideaway.wav

Pre-gap length 0:00:02.23

Peak level 100.0 %
Extraction speed 1.4 X
Track quality 100.0 %
Test CRC AA4BE6E2
Copy CRC AA4BE6E2
Accurately ripped (confidence 3) [6C224FEB] (AR v2)
Copy OK

Track 5

Filename C:\Exact Audio Copy\Michael Franks\Tiger In The Rain\05. Jardin Botanico.wav

Pre-gap length 0:00:00.53

Peak level 100.0 %
Extraction speed 1.2 X
Track quality 99.9 %
Test CRC 77F4A88A
Copy CRC 77F4A88A
Accurately ripped (confidence 3) [59D546FF] (AR v2)
Copy OK

Track 6

Filename C:\Exact Audio Copy\Michael Franks\Tiger In The Rain\06. Underneath The Apple Tree.wav

Pre-gap length 0:00:00.67

Peak level 99.8 %
Extraction speed 1.6 X
Track quality 100.0 %
Test CRC 8B8EA0D3
Copy CRC 8B8EA0D3
Accurately ripped (confidence 3) [C3851F41] (AR v2)
Copy OK

Track 7

Filename C:\Exact Audio Copy\Michael Franks\Tiger In The Rain\07. Tiger In The Rain.wav

Pre-gap length 0:00:00.46

Peak level 100.0 %
Extraction speed 1.7 X
Track quality 100.0 %
Test CRC ADCAE956
Copy CRC ADCAE956
Accurately ripped (confidence 3) [6B93CF1C] (AR v2)
Copy OK

Track 8

Filename C:\Exact Audio Copy\Michael Franks\Tiger In The Rain\08. Satisfaction Guaranteed.wav

Pre-gap length 0:00:01.74

Peak level 95.4 %
Extraction speed 1.7 X
Track quality 100.0 %
Test CRC F588274A
Copy CRC F588274A
Accurately ripped (confidence 3) [E6F5D446] (AR v2)
Copy OK

Track 9

Filename C:\Exact Audio Copy\Michael Franks\Tiger In The Rain\09. Lifeline.wav

Pre-gap length 0:00:01.60

Peak level 100.0 %
Extraction speed 1.7 X
Track quality 99.9 %
Test CRC A0034CB6
Copy CRC A0034CB6
Accurately ripped (confidence 3) [8C030948] (AR v2)
Copy OK


All tracks accurately ripped

No errors occurred

End of status report

–– CUETools DB Plugin V2.1.6

[CTDB TOCID: 4ixTa5ccjOGGBHZr_2VrAsOJ4K8-] found
Submit result: 4ixTa5ccjOGGBHZr_2VrAsOJ4K8- has been confirmed
Track | CTDB Status
1 | (21/26) Accurately ripped
2 | (21/26) Accurately ripped
3 | (23/26) Accurately ripped
4 | (24/26) Accurately ripped
5 | (25/26) Accurately ripped
6 | (26/26) Accurately ripped
7 | (26/26) Accurately ripped
8 | (25/26) Accurately ripped
9 | (26/26) Accurately ripped


==== Log checksum 49A50B8DD260CAD8486854B974300236F2EF55A156C52C532D74DF3C5F672E4C ====

Michael Franks - Tiger In The Rain (1979) {Japan SHM-CD}


Thanks to the original ripper