Tags
Language
Tags

Michael Stearns - Sacred Site (1993)

Posted By: gribovar
Michael Stearns - Sacred Site (1993)

Michael Stearns - Sacred Site (1993)
EAC Rip | FLAC (tracks+.cue+log) - 285 MB | MP3 CBR 320 kbps (LAME 3.93) - 147 MB | Covers (5 MB) included
Genre: Ambient | RAR 3% Rec. | Label: Hearts of Space (HS11038)

Michael Stearns is an electronic wizard, sound designer and master of analog synth space music. To a certain extent, Michael Stearns can be considered as the founding father of the Californian sacred space music scene next to Steve Roach and Robert Rich. Sacred Site marks the return of Michael Stearns as a solo artist after five busy years creating spectacular soundtrack music. Stearns saw the dawn of the 90's while traveling to Indonesia, Thailand, Egypt, Costa Rica, Brazil and the Galapagos Islands to record indigenous music and sound effects for film assignments. Arriving with an open mind and a finely tuned ear for ambience, he left stimulated - not only by the exotic soundscapes and unfamiliar instruments he heard, but also by the powerful, elemental music of these ancient worlds. As a result, Sacred Site shows a deeper integration of brilliant soundscape recordings and multi-cultural elements into Stearns's epic cinematic spacemusic style.
Tracklist:
01. Genesis Voices/Sacred Site Theme
02. Baraka Theme
03. Paha Sapa
04. Tropical Rain Forest
05. Land Light
06. Sacred Site Soundtrack
07. Twin Flame
08. Return
09. Chronos: Portraits Theme
10. Chronos: Main Theme
11. Chronos: Escalator Theme

Total time: 01:00:03

Exact Audio Copy V0.99 prebeta 4 from 23. January 2008

EAC extraction logfile from 8. November 2008, 0:42

Michael Stearns / Sacred Site

Used drive : PIONEER DVD-RW DVR-110D Adapter: 5 ID: 0

Read mode : Secure
Utilize accurate stream : Yes
Defeat audio cache : Yes
Make use of C2 pointers : No

Read offset correction : 48
Overread into Lead-In and Lead-Out : No
Fill up missing offset samples with silence : Yes
Delete leading and trailing silent blocks : No
Null samples used in CRC calculations : Yes
Used interface : Installed external ASPI interface
Gap handling : Appended to previous track

Used output format : User Defined Encoder
Selected bitrate : 320 kBit/s
Quality : High
Add ID3 tag : No
Command line compressor : C:\Program Files\FLAC\flac.exe
Additional command line options : -V -6 -T "artist=%a" -T "title=%t" -T "album=%g" -T "date=%y" -T "tracknumber=%n" -T "genre=%m" %s


TOC of the extracted CD

Track | Start | Length | Start sector | End sector
––––––––––––––––––––––––––––-
1 | 0:00.30 | 6:28.35 | 30 | 29164
2 | 6:28.65 | 6:27.45 | 29165 | 58234
3 | 12:56.35 | 3:13.00 | 58235 | 72709
4 | 16:09.35 | 6:01.20 | 72710 | 99804
5 | 22:10.55 | 4:48.15 | 99805 | 121419
6 | 26:58.70 | 7:07.45 | 121420 | 153489
7 | 34:06.40 | 5:02.05 | 153490 | 176144
8 | 39:08.45 | 11:46.20 | 176145 | 229114
9 | 50:54.65 | 4:42.10 | 229115 | 250274
10 | 55:37.00 | 2:15.05 | 250275 | 260404
11 | 57:52.05 | 2:12.25 | 260405 | 270329


Track 1

Filename D:\Rips\Michael_Stearns_-_Sacred_Site-(FLAC)-1993\01-Michael_Stearns_-_Genesis_Voices_-_Sacred_Site_Theme.wav

Pre-gap length 0:00:02.30

Peak level 100.0 %
Track quality 100.0 %
Test CRC CA856682
Copy CRC CA856682
Track not present in AccurateRip database
Copy OK

Track 2

Filename D:\Rips\Michael_Stearns_-_Sacred_Site-(FLAC)-1993\02-Michael_Stearns_-_Baraka_Theme.wav

Pre-gap length 0:00:00.10

Peak level 100.0 %
Track quality 100.0 %
Test CRC 66D1C019
Copy CRC 66D1C019
Track not present in AccurateRip database
Copy OK

Track 3

Filename D:\Rips\Michael_Stearns_-_Sacred_Site-(FLAC)-1993\03-Michael_Stearns_-_Paha_Sapa.wav

Pre-gap length 0:00:00.05

Peak level 83.8 %
Track quality 100.0 %
Test CRC 80EE2C30
Copy CRC 80EE2C30
Track not present in AccurateRip database
Copy OK

Track 4

Filename D:\Rips\Michael_Stearns_-_Sacred_Site-(FLAC)-1993\04-Michael_Stearns_-_Tropical_Rain_Forest.wav

Pre-gap length 0:00:01.25

Peak level 38.4 %
Track quality 99.9 %
Test CRC 76F7A569
Copy CRC 76F7A569
Track not present in AccurateRip database
Copy OK

Track 5

Filename D:\Rips\Michael_Stearns_-_Sacred_Site-(FLAC)-1993\05-Michael_Stearns_-_Land_Light.wav

Peak level 52.5 %
Track quality 99.9 %
Test CRC C52F1567
Copy CRC C52F1567
Track not present in AccurateRip database
Copy OK

Track 6

Filename D:\Rips\Michael_Stearns_-_Sacred_Site-(FLAC)-1993\06-Michael_Stearns_-_Sacred_Site_Soundtrack.wav

Pre-gap length 0:00:01.55

Peak level 100.0 %
Track quality 100.0 %
Test CRC 8196256F
Copy CRC 8196256F
Track not present in AccurateRip database
Copy OK

Track 7

Filename D:\Rips\Michael_Stearns_-_Sacred_Site-(FLAC)-1993\07-Michael_Stearns_-_Twin_Flame.wav

Pre-gap length 0:00:02.55

Peak level 55.1 %
Track quality 100.0 %
Test CRC 0BADC972
Copy CRC 0BADC972
Track not present in AccurateRip database
Copy OK

Track 8

Filename D:\Rips\Michael_Stearns_-_Sacred_Site-(FLAC)-1993\08-Michael_Stearns_-_Return.wav

Pre-gap length 0:00:02.00

Peak level 87.6 %
Track quality 99.9 %
Test CRC 75FDC81A
Copy CRC 75FDC81A
Track not present in AccurateRip database
Copy OK

Track 9

Filename D:\Rips\Michael_Stearns_-_Sacred_Site-(FLAC)-1993\09-Michael_Stearns_-_Chronos-_Portraits_Theme.wav

Pre-gap length 0:00:02.70

Peak level 52.8 %
Track quality 100.0 %
Test CRC 3CC962D4
Copy CRC 3CC962D4
Track not present in AccurateRip database
Copy OK

Track 10

Filename D:\Rips\Michael_Stearns_-_Sacred_Site-(FLAC)-1993\10-Michael_Stearns_-_Chronos-_Main_Theme.wav

Pre-gap length 0:00:00.55

Peak level 92.5 %
Track quality 100.0 %
Test CRC 983E3B3A
Copy CRC 983E3B3A
Track not present in AccurateRip database
Copy OK

Track 11

Filename D:\Rips\Michael_Stearns_-_Sacred_Site-(FLAC)-1993\11-Michael_Stearns_-_Chronos-_Escalator_Theme.wav

Pre-gap length 0:00:00.35

Peak level 87.7 %
Track quality 100.0 %
Test CRC 315AF640
Copy CRC 315AF640
Track not present in AccurateRip database
Copy OK


None of the tracks are present in the AccurateRip database

No errors occurred

End of status report

[CUETools log; Date: 15.09.2020 14:24:02; Version: 2.1.4]
Pregap length 00:00:30.
[CTDB TOCID: KMCOVzwyuY8ooxrlzWXx_0uP80M-] found.
Track | CTDB Status
1 | (24/25) Accurately ripped
2 | (24/25) Accurately ripped
3 | (24/25) Accurately ripped
4 | (25/25) Accurately ripped
5 | (24/25) Accurately ripped
6 | (24/25) Accurately ripped
7 | (23/25) Accurately ripped
8 | (23/25) Accurately ripped, or (1/25) differs in 4 samples @03:52:65
9 | (24/25) Accurately ripped
10 | (24/25) Accurately ripped
11 | (24/25) Accurately ripped
[AccurateRip ID: 001a4325-00e37b50-910e140b] found.
Track [ CRC | V2 ] Status
01 [e3f5a62b|b3aaa396] (05+02/30) Accurately ripped
02 [14bf2f19|121d0e02] (05+02/30) Accurately ripped
03 [6fe0909c|1a8b7c60] (05+02/30) Accurately ripped
04 [5fb24f97|203437e3] (05+02/30) Accurately ripped
05 [072eaf9a|411b8185] (05+02/30) Accurately ripped
06 [5e2bf2e3|8246bdd4] (05+02/30) Accurately ripped
07 [f538dd33|502f28ff] (05+02/30) Accurately ripped
08 [a7c0bfe3|cc1c4acb] (05+02/30) Accurately ripped
09 [6e9bfc99|ee720532] (05+02/30) Accurately ripped
10 [7033edc6|eef626f4] (05+02/30) Accurately ripped
11 [d242de4a|099a40e4] (05+02/30) Accurately ripped
Offsetted by -533:
01 [47f5b9dd] (04/30) Accurately ripped
02 [ccb921db] (04/30) Accurately ripped
03 [35c7044e] (04/30) Accurately ripped
04 [ca7e7534] (04/30) Accurately ripped
05 [183071d3] (04/30) Accurately ripped
06 [d92df27e] (04/30) Accurately ripped
07 [0666a69e] (04/30) Accurately ripped
08 [6739acef] (04/30) Accurately ripped
09 [adb65833] (04/30) Accurately ripped
10 [b6185085] (04/30) Accurately ripped
11 [67c32137] (04/30) Accurately ripped
Offsetted by 664:
01 [0a8a17a7] (00/30) No match (V2 was not tested)
02 [54534479] (00/30) No match (V2 was not tested)
03 [836c75ac] (00/30) No match (V2 was not tested)
04 [c5430d35] (00/30) No match (V2 was not tested)
05 [c37c3cb1] (00/30) No match (V2 was not tested)
06 [3304d5e2] (00/30) No match (V2 was not tested)
07 [90175bcb] (00/30) No match (V2 was not tested)
08 [c06cdd43] (00/30) No match (V2 was not tested)
09 [846136e9] (00/30) No match (V2 was not tested)
10 [9b85d1f8] (00/30) No match (V2 was not tested)
11 [d41a798d] (00/30) No match (V2 was not tested)

Track Peak [ CRC32 ] [W/O NULL] [ LOG ]
– 100,0 [B419C99B] [C756B527]
01 100,0 [CA856682] [BA1B3E6E] CRC32
02 100,0 [66D1C019] [021CC4AA] CRC32
03 83,8 [80EE2C30] [6047CBC7] CRC32
04 38,4 [76F7A569] [B8D0621C] CRC32
05 52,5 [C52F1567] [5A187612] CRC32
06 100,0 [8196256F] [22BCFC0A] CRC32
07 55,1 [0BADC972] [57760299] CRC32
08 87,6 [75FDC81A] [0E931A8F] CRC32
09 52,8 [3CC962D4] [4E88F38E] CRC32
10 92,5 [983E3B3A] [DCC4710F] CRC32
11 87,7 [315AF640] [8B5B02E5] CRC32

Thanks to Zest101

See also:
Michael Stearns - Sustaining Cylinders (1977) [Reissue 2001]
Michael Stearns - Planetary Unfolding (1981)
Michael Stearns - M'Ocean (1984)
Michael Stearns - Chronos [OST] (1985)
Michael Stearns - The Lost World (1995)
Michael Stearns - Within - The Nine Dimensions (1998)