Tags
Language
Tags

Michael Stearns - Within - The Nine Dimensions (1998)

Posted By: gribovar
Michael Stearns - Within - The Nine Dimensions (1998)

Michael Stearns - Within - The Nine Dimensions (1998)
EAC Rip | FLAC (image+.cue+log) - 342 MB | MP3 CBR 320 kbps (LAME 3.93) - 157 MB | Covers - 100 MB
Genre: Ambient | RAR 3% Rec. | Label: Earth Turtle Music (ET 2010)

In the spring of 1998, Barbara Hand Clow commissioned Michael to write this music for use in her workshops. Once he completed Barbara's version, he rearranged the compositions and added material for this CD. The music encompasses nine dimensions of the Earth experience, stretching from the molten center, to life and sounds from the planet's surface, out to the distant galaxies. One of the pieces, Seven, was composed on a Serge synthesizer. This is the first piece done entirely on the Serge since Planetary Unfolding. Other pieces feature the same bell collection he last used on the Baraka soundtrack.
Tracklist:
01. Double Helix
02. To The Center
03. Seven
04. Of Earth
05. Between
06. Longing
07. Telluric Realms
08. Sutra
09. The Fluid Spheres Of Earth
10. The Terrible Beauty

Total time: 01:06:38

Exact Audio Copy V0.99 prebeta 3 from 28. July 2007

EAC extraction logfile from 8. November 2008, 20:20

Michael Stearns / Within - The Nine Dimensions

Used drive : HP DVD Writer 940d Adapter: 4 ID: 4

Read mode : Secure
Utilize accurate stream : Yes
Defeat audio cache : Yes
Make use of C2 pointers : No

Read offset correction : 6
Overread into Lead-In and Lead-Out : No
Fill up missing offset samples with silence : Yes
Delete leading and trailing silent blocks : No
Null samples used in CRC calculations : Yes
Used interface : Installed external ASPI interface

Used output format : User Defined Encoder
Selected bitrate : 320 kBit/s
Quality : High
Add ID3 tag : No
Command line compressor : C:\Program Files\Exact Audio Copy\Flac\flac.exe
Additional command line options : –fast -T "ARTIST=%a" -T "TITLE=%t" -T "ALBUM=%g" -T "DATE=%y" -T "TRACKNUMBER=%n" -T "GENRE=%m" %s


TOC of the extracted CD

Track | Start | Length | Start sector | End sector
––––––––––––––––––––––––––––-
1 | 0:00.00 | 5:37.66 | 0 | 25340
2 | 5:37.66 | 7:24.62 | 25341 | 58702
3 | 13:02.53 | 5:55.39 | 58703 | 85366
4 | 18:58.17 | 6:17.51 | 85367 | 113692
5 | 25:15.68 | 6:36.30 | 113693 | 143422
6 | 31:52.23 | 5:26.73 | 143423 | 167945
7 | 37:19.21 | 7:55.02 | 167946 | 203572
8 | 45:14.23 | 5:40.30 | 203573 | 229102
9 | 50:54.53 | 6:23.52 | 229103 | 257879
10 | 57:18.30 | 9:19.54 | 257880 | 299858


Range status and errors

Selected range

Filename F:\__EAC_Released\Michael Stearns - Within - The Nine Dimensions.wav

Peak level 96.6 %
Range quality 100.0 %
Test CRC C7C738E8
Copy CRC C7C738E8
Copy OK

No errors occurred


AccurateRip summary

Track 1 not present in database
Track 2 not present in database
Track 3 not present in database
Track 4 not present in database
Track 5 not present in database
Track 6 not present in database
Track 7 not present in database
Track 8 not present in database
Track 9 not present in database
Track 10 not present in database

None of the tracks are present in the AccurateRip database

End of status report

[CUETools log; Date: 09.09.2020 17:30:56; Version: 2.1.4]
[CTDB TOCID: ZP5SWPVTKtEcWWs1EMeAJphLDSc-] found.
Track | CTDB Status
1 | (3/3) Accurately ripped
2 | (3/3) Accurately ripped
3 | (3/3) Accurately ripped
4 | (3/3) Accurately ripped
5 | (3/3) Accurately ripped
6 | (3/3) Accurately ripped
7 | (3/3) Accurately ripped
8 | (3/3) Accurately ripped
9 | (3/3) Accurately ripped
10 | (3/3) Accurately ripped
[AccurateRip ID: 00182ef8-00c26825-790f9e0a] found.
Track [ CRC | V2 ] Status
01 [4b5a5843|6dbf90e3] (2+2/4) Accurately ripped
02 [fa30879a|81f94fa5] (2+2/4) Accurately ripped
03 [91ef3bc9|93382d21] (2+2/4) Accurately ripped
04 [3695b0f8|68dcba33] (2+2/4) Accurately ripped
05 [87ed70f5|6a9b3bd0] (2+2/4) Accurately ripped
06 [686c4794|1754f6e7] (2+2/4) Accurately ripped
07 [6040d760|06a61b06] (2+2/4) Accurately ripped
08 [b603f411|4bf170a3] (2+2/4) Accurately ripped
09 [7d66477c|5cd8f8de] (2+2/4) Accurately ripped
10 [ae1e8a43|7ef82d55] (2+2/4) Accurately ripped

Track Peak [ CRC32 ] [W/O NULL] [ LOG ]
– 96,6 [C7C738E8] [A6C4736A] CRC32
01 96,6 [6961AE10] [5737F038]
02 96,6 [8B2FD522] [F34D7813]
03 96,5 [C1CF28D2] [AC3E6B6A]
04 96,5 [2F17A3B3] [7EB4BDC7]
05 96,5 [F0E0D4AE] [2903F66F]
06 96,6 [577B793A] [3A9E3383]
07 96,6 [DD6E6FB1] [F9373DA7]
08 96,6 [24786B60] [6CB665BE]
09 96,6 [596A7F50] [A236A761]
10 96,6 [08BE8054] [32189085]

Thanks to EPSmuz

See also:
Michael Stearns - Sustaining Cylinders (1977) [Reissue 2001]
Michael Stearns - Planetary Unfolding (1981)
Michael Stearns - M'Ocean (1984)