Subcategories

Miguel Bosé - Linda (1977) [2008, Reissue]

Posted By: BlondStyle
Miguel Bosé - Linda (1977) [2008, Reissue]

Miguel Bosé - Linda (1977) [2008, Reissue]
Pop, Latin, Vocal, Ballad | EAC Rip | FLAC, Tracks+CUE+LOG+Scans (JPEG) | 41:32 Min | 312,89 Mb
Label: Sony BMG Music Entertainment España, S.L. (EU) | Released: 2008-03-01 (1977)

Luis Miguel González Bosé (born April 3, 1956), usually known as Miguel Bosé, is a Panamanian-born Spanish musician and actor. Bosé became an honorary Colombian citizen in 2010. Propelled by his famous family and their friends, in 1971, Bosé started a career as an actor, participating in various movies. He quickly won spots on the basis of his talent and good looks alone, rather than his name, and he did study serious acting as well as dancing and singing. However, he did not make that many films, and in 1975 he decided a career change was due and started exploring his talents as a singer. With the assistance of Camilo Blanes he recorded his first singles. Two years later, in 1977, Bosé signed a contract with CBS Records, and he remained with them until 1984. Between 1977 and 1982, Bosè was a major teen idol in Italy, Spain and Southern Europe in general. He had 7 top ten hits in a disco/new wave trend that earned him a secure spot in every televised song festival held in the aforementioned countries, but, by 1983, his star had severely waned in Italy, and he rarely performed there again until the 2000s, retreating to Latin American markets instead.
~Wikipedia


Miguel Bosé - Linda (1977) [2008, Reissue]

Miguel Bosé - Linda (1977) [2008, Reissue]


Release of this album: 1977 [LP CBS, Cat.# S 82051, Spain]
Release of this CD: 2008, March, 1 [CD Sony BMG Music Entertainment España, S.L. (EU), Cat.# 88697283572 / UPC: 886972835723]
℗ 1977, 2008 Sony BMG Music Entertainment España, S.L.
© 2008 Sony BMG Music Entertainment España, S.L.
Made in the E.U.

Credits:
Design – Santiago Monforte
Engineer – Alan Florence, Carlo Assalini Michel, Franco Santamaria
Photography By – Antonio Molina
Producer – Danilo Vaona, José Luis Gil


Tracklist:

01. Linda (03:49)
02. Mi Libertad (03:54)
03. Eres Todo Para Mí (03:29)
04. Pequeño Amor (04:05)
05. Luna Park (05:05)
06. Never Gonna Fall In Love Again (04:05)
07. Amiga (04:58)
08. Nada De Nada (04:01)
09. Que Viva El Gran Amor (03:44)
10. Ana (04:21)

Exact Audio Copy V1.1 from 23. June 2015

Archivo Log de extracciones desde 19. Febrero 2016, 12:05

Miguel Bosé / Linda

Usar unidad : ASUS DRW-24F1ST a Adapter: 1 ID: 0

Modo de Lectura : : Seguro
Utilizar corriente precisa : Sí
Caché de audio por defecto : No
Utilizar los punteros C2 : No

Corrección de Desplazamiento de Lectura : : 6
Sobreleer tanto en Lead-In como en Lead-Out : No
Rellenar las muestras faltantes con silencios : Sí
Eliminar silencios inicial y final : No
Muestras nulas usadas en los calculos de CRC : Sí
Interfaz usada : Interfaz propio de Win32 para Windowns NT y 2000
Manejo de huecos : No se detectó, por lo que anexa a la pista anterior

Formato de Salida utilizado : : Compresor definido por el Usuario
Velocidad de bits seleccionada : 768 kBit/s
Calidad : Alta
Añadir ID3 tag : No
linea de comandos del compresor : C:\Program Files (x86)\Exact Audio Copy\FLAC\FLAC.EXE
Opciones adicionales en línea de comandos : : -6 -V -T "ARTIST=%artist%" -T "TITLE=%title%" -T "ALBUM=%albumtitle%" -T "DATE=%year%" -T "TRACKNUMBER=%tracknr%" -T "GENRE=%genre%" -T "COMMENT=%comment%" -T "BAND=%albuminterpret%" -T "ALBUMARTIST=%albuminterpret%" -T "COMPOSER=%composer%" %haslyrics%–tag-from-file=LYRICS="%lyricsfile%"%haslyrics% -T "DISCNUMBER=%cdnumber%" -T "TOTALDISCS=%totalcds%" -T "TOTALTRACKS=%numtracks%" %hascover%–picture="%coverfile%"%hascover% %source% -o %dest%


TOC extraídos del CD

Pista | Inicio | Longitud | Inicio del sector | Fin del sector
–––––––––––––––––––––––––––––––––
1 | 0:00.00 | 3:49.37 | 0 | 17211
2 | 3:49.37 | 3:54.08 | 17212 | 34769
3 | 7:43.45 | 3:28.63 | 34770 | 50432
4 | 11:12.33 | 4:04.51 | 50433 | 68783
5 | 15:17.09 | 5:05.19 | 68784 | 91677
6 | 20:22.28 | 4:05.34 | 91678 | 110086
7 | 24:27.62 | 4:58.16 | 110087 | 132452
8 | 29:26.03 | 4:00.52 | 132453 | 150504
9 | 33:26.55 | 3:44.14 | 150505 | 167318
10 | 37:10.69 | 4:21.11 | 167319 | 186904


Pista 1

Nombre de Archivo F:\EAC\01 Linda.wav

Nivel Pico 100.0 %
Velocidad de extracción 2.8 X
Calidad de Pista 100.0 %
Copiar CRC AAABE148
Pista sin datos en Accuraterip
Copia OK

Pista 2

Nombre de Archivo F:\EAC\02 Mi Libertad.wav

Nivel Pico 100.0 %
Velocidad de extracción 3.1 X
Calidad de Pista 100.0 %
Copiar CRC 582BBDDC
Pista sin datos en Accuraterip
Copia OK

Pista 3

Nombre de Archivo F:\EAC\03 Eres Todo para Mi.wav

Nivel Pico 100.0 %
Velocidad de extracción 3.3 X
Calidad de Pista 99.9 %
Copiar CRC 71ECCD9E
Pista sin datos en Accuraterip
Copia OK

Pista 4

Nombre de Archivo F:\EAC\04 Pequeño Amor.wav

Nivel Pico 96.9 %
Velocidad de extracción 3.5 X
Calidad de Pista 99.9 %
Copiar CRC 96317F97
Pista sin datos en Accuraterip
Copia OK

Pista 5

Nombre de Archivo F:\EAC\05 Luna Park.wav

Nivel Pico 100.0 %
Velocidad de extracción 3.9 X
Calidad de Pista 100.0 %
Copiar CRC 55268850
Pista sin datos en Accuraterip
Copia OK

Pista 6

Nombre de Archivo F:\EAC\06 Never Gonna Fall in Love Again.wav

Nivel Pico 100.0 %
Velocidad de extracción 4.2 X
Calidad de Pista 100.0 %
Copiar CRC 32DD4289
Pista sin datos en Accuraterip
Copia OK

Pista 7

Nombre de Archivo F:\EAC\07 Amiga.wav

Nivel Pico 97.0 %
Velocidad de extracción 4.4 X
Calidad de Pista 100.0 %
Copiar CRC 64EA2032
Pista sin datos en Accuraterip
Copia OK

Pista 8

Nombre de Archivo F:\EAC\08 Nada de Nada.wav

Nivel Pico 100.0 %
Velocidad de extracción 4.5 X
Calidad de Pista 99.9 %
Copiar CRC 3DBC7CCF
Pista sin datos en Accuraterip
Copia OK

Pista 9

Nombre de Archivo F:\EAC\09 Que Viva el Gran Amor.wav

Nivel Pico 94.2 %
Velocidad de extracción 4.7 X
Calidad de Pista 100.0 %
Copiar CRC A0F10FE4
Pista sin datos en Accuraterip
Copia OK

Pista 10

Nombre de Archivo F:\EAC\10 Ana.wav

Nivel Pico 100.0 %
Velocidad de extracción 5.0 X
Calidad de Pista 100.0 %
Copiar CRC DD5D030A
Pista sin datos en Accuraterip
Copia OK


Ninguna pista tiene datos en AccurateRip

Sin Errores

Final del Informe

–– CUETools DB Plugin V2.1.6

[CTDB TOCID: PpOOr1DoAacTYGOx.XpOWkVxrAQ-] found
Submit result: PpOOr1DoAacTYGOx.XpOWkVxrAQ- has been confirmed
Track | CTDB Status
1 | (1/1) Accurately ripped
2 | (1/1) Accurately ripped
3 | (1/1) Accurately ripped
4 | (1/1) Accurately ripped
5 | (1/1) Accurately ripped
6 | (1/1) Accurately ripped
7 | (1/1) Accurately ripped
8 | (1/1) Accurately ripped
9 | (1/1) Accurately ripped
10 | (1/1) Accurately ripped

––––––––––––––––––––––––––––––––––––––––
Analyzed: Miguel Bosé / Linda
––––––––––––––––––––––––––––––––––––––––

DR Peak RMS Duration Track
––––––––––––––––––––––––––––––––––––––––
DR9 0.00 dB -11.87 dB 3:49 01-Linda
DR11 0.00 dB -12.48 dB 3:54 02-Mi Libertad
DR10 0.00 dB -11.48 dB 3:29 03-Eres Todo para Mi
DR15 -0.27 dB -17.94 dB 4:05 04-Pequeño Amor
DR13 0.00 dB -17.30 dB 5:05 05-Luna Park
DR9 0.00 dB -11.52 dB 4:05 06-Never Gonna Fall in Love Again
DR12 -0.26 dB -14.83 dB 4:58 07-Amiga
DR14 0.00 dB -16.28 dB 4:01 08-Nada de Nada
DR12 -0.51 dB -16.84 dB 3:44 09-Que Viva el Gran Amor
DR10 0.00 dB -13.17 dB 4:21 10-Ana
––––––––––––––––––––––––––––––––––––––––

Number of tracks: 10
Official DR value: DR12

Samplerate: 44100 Hz
Channels: 2
Bits per sample: 16
Bitrate: 890 kbps
Codec: FLAC
================================================================================

All thanks to the original releaser

password: BlondStyle