Subcategories

Miles Davis - E.S.P. (1965) [MFSL Remastered 2015] Audio CD Layer

Posted By: Designol
Miles Davis - E.S.P. (1965) [MFSL Remastered 2015] Audio CD Layer

Miles Davis - E.S.P. (1965) [MFSL Remastered 2015]
EAC | FLAC | Tracks (Cue&Log) ~ 270 Mb | Mp3 (CBR320) ~ 123 Mb | Scans included
Hard Bop, Trumpet Jazz | Label: Mobile Fidelity Sound Lab | # UDSACD 2170 | 00:48:36

ESP marks the beginning of a revitalization for Miles Davis, as his second classic quintet – saxophonist Wayne Shorter, pianist Herbie Hancock, bassist Ron Carter, and drummer Tony Williams – gels, establishing what would become their signature adventurous hard bop. Miles had been moving toward this direction in the two years preceding the release of ESP and he had recorded with everyone outside of Shorter prior to this record, but his addition galvanizes the group, pushing them toward music that was recognizably bop but as adventurous as jazz's avant-garde. Outwardly, this music doesn't take as many risks as Coltrane or Ornette Coleman's recordings of the mid-'60s, but by borrowing some of the same theories – a de-emphasis of composition in favor of sheer improvisation, elastic definitions of tonality – they created a unique sound that came to define the very sound of modern jazz. Certainly, many musicians have returned to this group for inspiration, but their recordings remain fresh, because they exist at this fine dividing line between standard bop and avant. On ESP, they tilt a bit toward conventional hard bop (something that's apparent toward the end of the record), largely because this is their first effort, but the fact is, this difference between this album and hard bop from the early '60s is remarkable. This is exploratory music, whether it's rushing by in a flurry of notes or elegantly reclining in Hancock's calm yet complex chords. The compositions are brilliantly structured as well, encouraging such free-form exploration with their elliptical yet memorable themes. This quintet may have cut more adventurous records, but ESP remains one of their very best albums.

Review by Stephen Thomas Erlewine, Allmusic.com

Miles Davis - E.S.P. (1965) [MFSL Remastered 2015] Audio CD Layer



Miles Davis - trumpet
Wayne Shorter - tenor saxophone
Herbie Hancock - piano
Ron Carter - bass
Tony Williams - drums

Recorded at Columbia Studios, Los Angeles, CA on January 20–22, 1965.

Tracklist:

01. E.S.P. (5:34)
02. Eighty-One (6:17)
03. Little One (7:26)
04. R.J. (4:03)
05. Agitation (7:49)
06. Iris (8:36)
07. Mood (8:52)


Exact Audio Copy V1.3 from 2. September 2016

EAC extraction logfile from 17. July 2017, 15:37

Miles Davis / E.S.P. (2016 MFSL)

Used drive : PLEXTOR CD-R PREMIUM Adapter: 1 ID: 1

Read mode : Secure
Utilize accurate stream : Yes
Defeat audio cache : Yes
Make use of C2 pointers : No

Read offset correction : 30
Overread into Lead-In and Lead-Out : No
Fill up missing offset samples with silence : Yes
Delete leading and trailing silent blocks : No
Null samples used in CRC calculations : Yes
Used interface : Native Win32 interface for Win NT & 2000
Gap handling : Appended to previous track

Used output format : User Defined Encoder
Selected bitrate : 768 kBit/s
Quality : High
Add ID3 tag : No
Command line compressor : C:\Program Files (x86)\Exact Audio Copy\FLAC\FLAC.EXE
Additional command line options : -6 -e -p -V -T "ARTIST=%artist%" -T "TITLE=%title%" -T "ALBUM=%albumtitle%" -T "DATE=%year%" -T "TRACKNUMBER=%tracknr%" -T "GENRE=%genre%" -T "PERFORMER=%albuminterpret%" -T "COMPOSER=%composer%" %haslyrics%–tag-from-file=LYRICS="%lyricsfile%"%haslyrics% -T "ALBUMARTIST=%albumartist%" -T "DISCNUMBER=%cdnumber%" -T "TOTALDISCS=%totalcds%" -T "TOTALTRACKS=%numtracks%" -T "COMMENT=%comment%" %source% -o %dest%


TOC of the extracted CD

Track | Start | Length | Start sector | End sector
––––––––––––––––––––––––––––-
1 | 0:00.00 | 5:33.55 | 0 | 25029
2 | 5:33.55 | 6:17.24 | 25030 | 53328
3 | 11:51.04 | 7:26.08 | 53329 | 86786
4 | 19:17.12 | 4:03.01 | 86787 | 105012
5 | 23:20.13 | 7:48.41 | 105013 | 140153
6 | 31:08.54 | 8:35.45 | 140154 | 178823
7 | 39:44.24 | 8:51.40 | 178824 | 218688


Track 1

Filename C:\tmp\00_RIPS\01 - E.S.P..wav

Pre-gap length 0:00:02.00

Peak level 87.0 %
Extraction speed 9.0 X
Track quality 100.0 %
Test CRC D5628038
Copy CRC D5628038
Accurately ripped (confidence 8) [F8F4435F] (AR v2)
Copy OK

Track 2

Filename C:\tmp\00_RIPS\02 - Eighty-One.wav

Pre-gap length 0:00:04.90

Peak level 96.1 %
Extraction speed 10.2 X
Track quality 100.0 %
Test CRC 633C2021
Copy CRC 633C2021
Accurately ripped (confidence 8) [EC413DFC] (AR v2)
Copy OK

Track 3

Filename C:\tmp\00_RIPS\03 - Little One.wav

Pre-gap length 0:00:04.88

Peak level 80.1 %
Extraction speed 11.5 X
Track quality 100.0 %
Test CRC 6D4055FD
Copy CRC 6D4055FD
Accurately ripped (confidence 8) [C87708B7] (AR v2)
Copy OK

Track 4

Filename C:\tmp\00_RIPS\04 - R.J..wav

Pre-gap length 0:00:04.86

Peak level 87.9 %
Extraction speed 10.3 X
Track quality 99.9 %
Test CRC 32E8C526
Copy CRC 32E8C526
Accurately ripped (confidence 8) [EDCB8106] (AR v2)
Copy OK

Track 5

Filename C:\tmp\00_RIPS\05 - Agitation.wav

Pre-gap length 0:00:04.77

Peak level 86.3 %
Extraction speed 13.4 X
Track quality 100.0 %
Test CRC A898E072
Copy CRC A898E072
Accurately ripped (confidence 8) [90AB6755] (AR v2)
Copy OK

Track 6

Filename C:\tmp\00_RIPS\06 - Iris.wav

Pre-gap length 0:00:04.89

Peak level 72.1 %
Extraction speed 13.2 X
Track quality 99.9 %
Test CRC 2C82B44A
Copy CRC 2C82B44A
Accurately ripped (confidence 8) [CE91BB52] (AR v2)
Copy OK

Track 7

Filename C:\tmp\00_RIPS\07 - Mood.wav

Pre-gap length 0:00:04.90

Peak level 81.8 %
Extraction speed 13.3 X
Track quality 99.9 %
Test CRC 4ECEDD85
Copy CRC 4ECEDD85
Accurately ripped (confidence 8) [112EEC6D] (AR v2)
Copy OK


All tracks accurately ripped

No errors occurred

End of status report

–– CUETools DB Plugin V2.1.6

[CTDB TOCID: 2Xpr.N1sdXV7Mi6n1Y3rKCoAByY-] found
Submit result: 2Xpr.N1sdXV7Mi6n1Y3rKCoAByY- has been confirmed
Track | CTDB Status
1 | (14/14) Accurately ripped
2 | (14/14) Accurately ripped
3 | (14/14) Accurately ripped
4 | (14/14) Accurately ripped
5 | (14/14) Accurately ripped
6 | (14/14) Accurately ripped
7 | (13/14) Accurately ripped


==== Log checksum 14840AD5A48C38BD5213BB039F9FBE38E678602818102D6ACEAD9FAC2BDB131B ====

foobar2000 1.2 / Dynamic Range Meter 1.1.1
log date: 2017-07-19 05:51:58

––––––––––––––––––––––––––––––––––––––––
Analyzed: Miles Davis / E.S.P.
––––––––––––––––––––––––––––––––––––––––

DR Peak RMS Duration Track
––––––––––––––––––––––––––––––––––––––––
DR13 -1.20 dB -16.81 dB 5:34 01-E.S.P.
DR12 -0.34 dB -14.84 dB 6:17 02-Eighty-One
DR10 -1.93 dB -17.25 dB 7:26 03-Little One
DR12 -1.11 dB -14.80 dB 4:03 04-R.J.
DR11 -1.27 dB -16.24 dB 7:49 05-Agitation
DR10 -2.84 dB -17.04 dB 8:36 06-Iris
DR10 -1.74 dB -17.54 dB 8:52 07-Mood
––––––––––––––––––––––––––––––––––––––––

Number of tracks: 7
Official DR value: DR11

Samplerate: 44100 Hz
Channels: 2
Bits per sample: 16
Bitrate: 678 kbps
Codec: FLAC
================================================================================

Miles Davis - E.S.P. (1965) [MFSL Remastered 2015] Audio CD Layer

Miles Davis - E.S.P. (1965) [MFSL Remastered 2015] Audio CD Layer