Miles Davis - Sorcerer (1967) [MFSL Remastered 2015] Audio CD Layer

Posted By: Designol
Miles Davis - Sorcerer (1967) [MFSL Remastered 2015] Audio CD Layer

Miles Davis - Sorcerer (1967) [MFSL Remastered 2015]
EAC | FLAC | Tracks (Cue&Log) ~ 240 Mb | Mp3 (CBR320) ~ 101 Mb | Scans included | 00:40:24
Post-Bop, Modal Music, Trumpet Jazz | Label: Mobile Fidelity Sound Lab | # UDSACD 2145

Sorcerer, the third album by the second Miles Davis Quintet, is in a sense a transitional album, a quiet, subdued affair that rarely blows hot, choosing to explore cerebral tonal colorings. Even when the tempo picks up, as it does on the title track, there's little of the dense, manic energy on Miles Smiles – this is about subtle shadings, even when the compositions are as memorable as Tony Williams' "Pee Wee" or Herbie Hancock's "Sorcerer." As such, it's a little elusive, since it represents the deepening of the band's music as they choose to explore different territory. The emphasis is as much on complex, interweaving chords and a coolly relaxed sound as it is on sheer improvisation, though each member tears off thoroughly compelling solos. Still, the individual flights aren't placed at the forefront the way they were on the two predecessors – it all merges together, pointing toward the dense soundscapes of Miles' later '60s work. It's such a layered, intriguing work that the final cut, recorded in 1962 with Bob Dorough on vocals, is an utterly jarring, inappropriate way to end the record, even if it's intended as a tribute to Miles' then-girlfriend (later, his wife), Cicely Tyson (whose image graces the cover).

Review by Stephen Thomas Erlewine, Allmusic.com

Miles Davis - Sorcerer (1967) [MFSL Remastered 2015] Audio CD Layer



#1-6:
Miles Davis - trumpet
Wayne Shorter - tenor saxophone
Herbie Hancock - piano
Ron Carter - bass
Tony Williams - drums
Recorded at Columbia Studio B at 30th Street Studio, New York on May 16–24, 1967.

#7:
Miles Davis - trumpet
Wayne Shorter - tenor saxophone
Frank Rehak - trombone
Paul Chambers - bass
Jimmy Cobb - drums
Willie Bobo - bongos
Bob Dorough - vocals
Gil Evans - arranger
Recorded at Columbia Studio A, New York on August 21, 1962.

Tracklist:

01. Prince of Darkness (6:31)
02. Pee Wee (4:51)
03. Masqualero (8:55)
04. The Sorcerer (5:13)
05. Limbo (7:18)
06. Vonetta (5:39)
07. Nothing Like You (1:58)


Exact Audio Copy V1.3 from 2. September 2016

EAC extraction logfile from 12. July 2017, 23:01

Miles Davis / Sorcerer (2015 MFSL)

Used drive : PLEXTOR CD-R PREMIUM Adapter: 1 ID: 1

Read mode : Secure
Utilize accurate stream : Yes
Defeat audio cache : Yes
Make use of C2 pointers : No

Read offset correction : 30
Overread into Lead-In and Lead-Out : No
Fill up missing offset samples with silence : Yes
Delete leading and trailing silent blocks : No
Null samples used in CRC calculations : Yes
Used interface : Native Win32 interface for Win NT & 2000
Gap handling : Appended to previous track

Used output format : User Defined Encoder
Selected bitrate : 768 kBit/s
Quality : High
Add ID3 tag : No
Command line compressor : C:\Program Files (x86)\Exact Audio Copy\FLAC\FLAC.EXE
Additional command line options : -6 -e -p -V -T "ARTIST=%artist%" -T "TITLE=%title%" -T "ALBUM=%albumtitle%" -T "DATE=%year%" -T "TRACKNUMBER=%tracknr%" -T "GENRE=%genre%" -T "PERFORMER=%albuminterpret%" -T "COMPOSER=%composer%" %haslyrics%–tag-from-file=LYRICS="%lyricsfile%"%haslyrics% -T "ALBUMARTIST=%albumartist%" -T "DISCNUMBER=%cdnumber%" -T "TOTALDISCS=%totalcds%" -T "TOTALTRACKS=%numtracks%" -T "COMMENT=%comment%" %source% -o %dest%


TOC of the extracted CD

Track | Start | Length | Start sector | End sector
––––––––––––––––––––––––––––-
1 | 0:00.00 | 6:30.60 | 0 | 29309
2 | 6:30.60 | 4:50.68 | 29310 | 51127
3 | 11:21.53 | 8:55.23 | 51128 | 91275
4 | 20:17.01 | 5:13.10 | 91276 | 114760
5 | 25:30.11 | 7:17.63 | 114761 | 147598
6 | 32:47.74 | 5:38.40 | 147599 | 172988
7 | 38:26.39 | 1:57.67 | 172989 | 181830


Track 1

Filename C:\tmp\00_RIPS\01 - Prince Of Darkness.wav

Pre-gap length 0:00:02.00

Peak level 91.9 %
Extraction speed 9.1 X
Track quality 100.0 %
Test CRC 87F49F14
Copy CRC 87F49F14
Accurately ripped (confidence 13) [CEE5455A] (AR v2)
Copy OK

Track 2

Filename C:\tmp\00_RIPS\02 - Pee Wee.wav

Peak level 68.4 %
Extraction speed 10.2 X
Track quality 100.0 %
Test CRC F258E89E
Copy CRC F258E89E
Accurately ripped (confidence 13) [68FFFA7E] (AR v2)
Copy OK

Track 3

Filename C:\tmp\00_RIPS\03 - Masqualero.wav

Peak level 93.9 %
Extraction speed 11.6 X
Track quality 100.0 %
Test CRC AF06E5AE
Copy CRC AF06E5AE
Accurately ripped (confidence 13) [F752C441] (AR v2)
Copy OK

Track 4

Filename C:\tmp\00_RIPS\04 - The Sorcerer.wav

Peak level 83.5 %
Extraction speed 12.5 X
Track quality 100.0 %
Test CRC 6AC579B5
Copy CRC 6AC579B5
Accurately ripped (confidence 13) [1D8854FF] (AR v2)
Copy OK

Track 5

Filename C:\tmp\00_RIPS\05 - Limbo.wav

Peak level 93.6 %
Extraction speed 13.6 X
Track quality 100.0 %
Test CRC 63F0E56C
Copy CRC 63F0E56C
Accurately ripped (confidence 13) [F11577D4] (AR v2)
Copy OK

Track 6

Filename C:\tmp\00_RIPS\06 - Vonetta.wav

Peak level 81.6 %
Extraction speed 14.3 X
Track quality 100.0 %
Test CRC DB6A2418
Copy CRC DB6A2418
Accurately ripped (confidence 13) [12FB42EC] (AR v2)
Copy OK

Track 7

Filename C:\tmp\00_RIPS\07 - Nothing Like You.wav

Peak level 86.3 %
Extraction speed 7.7 X
Track quality 99.9 %
Test CRC 02691384
Copy CRC 02691384
Accurately ripped (confidence 13) [22E1CBCA] (AR v2)
Copy OK


All tracks accurately ripped

No errors occurred

End of status report

–– CUETools DB Plugin V2.1.6

[CTDB TOCID: RF50GAyU.H_bPBRlx8qibkJMFn4-] found
Submit result: RF50GAyU.H_bPBRlx8qibkJMFn4- has been confirmed
Track | CTDB Status
1 | (19/19) Accurately ripped
2 | (19/19) Accurately ripped
3 | (18/19) Accurately ripped
4 | (19/19) Accurately ripped
5 | (19/19) Accurately ripped
6 | (19/19) Accurately ripped
7 | (19/19) Accurately ripped


==== Log checksum C85220F8BAD3D82D534665C6E9CA7BE78F02CB4242C1D4A84EF39A29120C59FD ====

foobar2000 1.2 / Dynamic Range Meter 1.1.1
log date: 2017-07-18 02:47:18

––––––––––––––––––––––––––––––––––––––––
Analyzed: Miles Davis / Sorcerer
––––––––––––––––––––––––––––––––––––––––

DR Peak RMS Duration Track
––––––––––––––––––––––––––––––––––––––––
DR12 -0.73 dB -15.29 dB 6:31 01-Prince of Darkness
DR11 -3.29 dB -20.35 dB 4:51 02-Pee Wee
DR12 -0.54 dB -16.82 dB 8:55 03-Masqualero
DR11 -1.56 dB -16.08 dB 5:13 04-The Sorcerer
DR13 -0.57 dB -17.16 dB 7:18 05-Limbo
DR12 -1.76 dB -19.53 dB 5:39 06-Vonetta
DR11 -1.27 dB -17.28 dB 1:58 07-Nothing Like You
––––––––––––––––––––––––––––––––––––––––

Number of tracks: 7
Official DR value: DR12

Samplerate: 44100 Hz
Channels: 2
Bits per sample: 16
Bitrate: 854 kbps
Codec: FLAC
================================================================================

Miles Davis - Sorcerer (1967) [MFSL Remastered 2015] Audio CD Layer

Miles Davis - Sorcerer (1967) [MFSL Remastered 2015] Audio CD Layer