Subcategories

Miles Davis & Gil Evans - Concierto De Aranjuez (1961) {Giants Of Jazz}

Posted By: tiburon
Miles Davis & Gil Evans - Concierto De Aranjuez (1961) {Giants Of Jazz}

Miles Davis & Gil Evans - Concierto De Aranjuez (1961) {Giants Of Jazz}
EAC 1.3 | FLAC tracks level 8 | Cue+Log+M3U | Full Scans 300dpi | 364MB + 5% Recovery
MP3 CBR 320 Kbps | 134MB + 5% Recovery
Genre: Jazz, Bop
Miles Davis & Gil Evans - Concierto De Aranjuez (1961) {Giants Of Jazz}

On May 19, 1961, Miles Davis was showcased at a Carnegie Hall concert, performing with his quintet of the time (tenor saxophonist Hank Mobley, pianist Wynton Kelly, bassist Paul Chambers and drummer Jimmy Cobb) and, for the first time in public, the Gil Evans Orchestra. Although thought of by some later on as being in an off period since he was between innovations, Miles' trumpet chops were actually in prime form during 1961-63, as he shows throughout the date. All of the music on this 1998 two-CD set has been out before, either on the original LP of the same name or on the later album More Music From the Legendary Carnegie Hall Concert, but this is the first time that the two sets have been reproduced in their original order. While the first half of the show includes good versions of "So What" (which has the only interaction of the orchestra with Davis' small group) and "Walkin'," the second set (highlighted by "Oleo" and "No Blues") clearly found the trumpeter in better form. He concluded the performance with a lengthy rendition of "Adagio" from "Concierto De Aranjuez" with Evans' ensemble. While not quite essential (there are many other classic Miles Davis recordings currently available), this twofer will be wanted by the trumpeter's many fans.
Track List
1. Concierto De Aranjuez (Part 1 & 2) (16:46) ** - J. Rodrigo
2.Teo (9:14) * - M. Davis
3.Walkin' (9:18) * - R. Carpenter
4.I Thought About You (4:42) * - J. Van Heusen , J. Mercer
5.Spring Is Here (4:02) ** - L. Hart , R. Rodgers
6.No Blues (10:48) * - M. Davis
7.Oleo (7:23) * - S. Rollins
8.Someday My Prince Will Come (2:43) * - F. Churchill , L. Morey
9.The Meaning Of The Blues / Lament / New Rhumba (8:28) **

Recorded at Carnegie Hall, May 19, 1961.

[Lament] - J. J. Johnson
[New Rhumba] - A. Jamal
[The Meaning Of The Blues] - B. Troup* , L. Worth

* Miles Davis Quintet
** Miles Davis Quintet + Gil Evans and his Orchestra
featuring:
Miles Davis - trumpet
Hank Mobley - tenor sax
Wynton Kelly - piano
Paul Chambers - bass
Jimmy Cobb - drums


Exact Audio Copy V1.3 from 2. September 2016

EAC extraction logfile from 28. March 2017, 20:01

Miles Davis & Gil Evans / Concierto De Aranjuez - Carnegie Hall, May 19, 1961

Used drive : HL-DT-STDVDRAM GH24NSB0 Adapter: 1 ID: 0

Read mode : Secure
Utilize accurate stream : Yes
Defeat audio cache : Yes
Make use of C2 pointers : No

Read offset correction : 6
Overread into Lead-In and Lead-Out : No
Fill up missing offset samples with silence : Yes
Delete leading and trailing silent blocks : No
Null samples used in CRC calculations : Yes
Used interface : Native Win32 interface for Win NT & 2000
Gap handling : Appended to previous track

Used output format : User Defined Encoder
Selected bitrate : 1024 kBit/s
Quality : High
Add ID3 tag : No
Command line compressor : C:\Program Files (x86)\Exact Audio Copy\FLAC\FLAC.EXE
Additional command line options : -V -8 -T "Genre=%genre%" -T "Artist=%artist%" -T "Title=%title%" -T "Album=%albumtitle%" -T "Date=%year%" -T "Tracknumber=%tracknr%" -T "Comment=%comment%" %source%


TOC of the extracted CD

Track | Start | Length | Start sector | End sector
––––––––––––––––––––––––––––-
1 | 0:00.33 | 16:52.25 | 33 | 75957
2 | 16:52.58 | 23:27.30 | 75958 | 181512
3 | 40:20.13 | 14:51.65 | 181513 | 248402
4 | 55:12.03 | 18:35.52 | 248403 | 332079


Track 1

Filename D:\Music\New rips\Miles Davis & Gil Evans - Concierto de Aranjuez - Carnegie Hall, May 19, 1961 - 1988 (Joker) [FLAC]\01 - Concierto De Aranjuez (Part 1 & 2).wav

Pre-gap length 0:00:02.33

Peak level 74.9 %
Extraction speed 1.5 X
Track quality 100.0 %
Test CRC 40F25E7A
Copy CRC 40F25E7A
Accurately ripped (confidence 4) [D7B99E90] (AR v2)
Copy OK

Track 2

Filename D:\Music\New rips\Miles Davis & Gil Evans - Concierto de Aranjuez - Carnegie Hall, May 19, 1961 - 1988 (Joker) [FLAC]\02 - Teo,Walkin' - I Thought About You.wav

Pre-gap length 0:00:01.33

Peak level 73.1 %
Extraction speed 2.0 X
Track quality 100.0 %
Test CRC 3CDC0322
Copy CRC 3CDC0322
Accurately ripped (confidence 3) [53C3175A] (AR v2)
Copy OK

Track 3

Filename D:\Music\New rips\Miles Davis & Gil Evans - Concierto de Aranjuez - Carnegie Hall, May 19, 1961 - 1988 (Joker) [FLAC]\03 - Spring Is Here - No Blues.wav

Pre-gap length 0:00:01.10

Peak level 74.9 %
Extraction speed 2.4 X
Track quality 100.0 %
Test CRC A61CEDC4
Copy CRC A61CEDC4
Accurately ripped (confidence 3) [C1343E4D] (AR v2)
Copy OK

Track 4

Filename D:\Music\New rips\Miles Davis & Gil Evans - Concierto de Aranjuez - Carnegie Hall, May 19, 1961 - 1988 (Joker) [FLAC]\04 - Oleo,Someday My Prince Will Come,The Meaning Of The Blues,Lament - New Rhumba.wav

Pre-gap length 0:00:01.35

Peak level 85.3 %
Extraction speed 2.7 X
Track quality 100.0 %
Test CRC E059ECC5
Copy CRC E059ECC5
Accurately ripped (confidence 3) [075A8063] (AR v2)
Copy OK


All tracks accurately ripped

No errors occurred

End of status report

==== Log checksum 00A0F271C3FD4717F43311D32C2FA8001096A25FE12140B5C5466175CFE19F8D ====


––––––––––––––––––––––––––––––––––––––––
Analyzed: Miles Davis & Gil Evans / Concierto De Aranjuez - Carnegie Hall, May 19, 1961
––––––––––––––––––––––––––––––––––––––––

DR Peak RMS Duration Track
––––––––––––––––––––––––––––––––––––––––
DR11 -2.50 dB -18.85 dB 16:52 01-Concierto De Aranjuez (Part 1 & 2)
DR13 -2.72 dB -18.81 dB 23:27 02-Teo/Walkin' - I Thought About You
DR12 -2.51 dB -18.01 dB 14:52 03-Spring Is Here - No Blues
––––––––––––––––––––––––––––––––––––––––

Number of tracks: 3
Official DR value: DR12

Samplerate: 44100 Hz
Channels: 2
Bits per sample: 16
Bitrate: 676 kbps
Codec: FLAC
================================================================================

Miles Davis & Gil Evans - Concierto De Aranjuez (1961) {Giants Of Jazz}
Miles Davis & Gil Evans - Concierto De Aranjuez (1961) {Giants Of Jazz}
Miles Davis & Gil Evans - Concierto De Aranjuez (1961) {Giants Of Jazz}


Thanks to the original ripper