Subcategories

Miles Davis Quintet - Live In Europe 1969-The Bootleg Series, Vol.2 (2013) [3CD+DVD] {Columbia} [Re-Up]

Posted By: tiburon
Miles Davis Quintet - Live In Europe 1969-The Bootleg Series, Vol.2 (2013) [3CD+DVD] {Columbia} [Re-Up]

Miles Davis Quintet - Live In Europe 1969-The Bootleg Series, Vol. 2 (2013) [3CD+DVD] {Columbia}
EAC 1.0b3 | FLAC tracks level 8 | Cue+Log+M3U | Full Scans 300dpi | 649MB + 5% Recovery
DVD-5 | DVD Decrypter | NTSC 4:3 (720x480) | ISO+MDS+MD5 | MPEG-2 | LPCM 48kHz | 2.74GB + 5% recovery
Genre: Jazz

The first volume Legacy’s Miles Davis bootleg series offered audio and video evidence of his second great quintet playing the Newport Jazz Festival in Europe in 1967. Acclaim from critics and fans was universal. This second entry, Live in Europe 1969: Bootleg Series, Vol. 2, showcases almost an entirely different band – only saxophonist Wayne Shorter remains. Bassist Dave Holland, drummer Jack DeJohnette, and pianist Chick Corea made up Davis' road band, and other individuals participated in sessions for Filles de Kilimanjaro and In a Silent Way. These fire-breathing performances offer a band at fever pitch hearing and playing what they knew even then was a new chapter in jazz history.
Track List

CD One – Selections:
01. Introduction by André Francis
02. Directions
03. Miles Runs The Voodoo Down
04. Milestones
05. Footprints
06. ’Round Midnight
07. It’s About That Time
08. Sanctuary
09. The Theme
(Recorded 7/25/69 at Festival Mondial du Jazz d’Antibes, La Pinède, Juan-les-Pins, France.)

CD Two – Selections:
01. Introduction by André Francis
02. Directions
03. Spanish Key
04. I Fall In Love Too Easily
05. Masqualero
06. Miles Runs The Voodoo Down
07. No Blues
08. Nefertiti
09. Sanctuary
10. The Theme
(Recorded 7/26/69 at Festival Mondial du Jazz d’Antibes, La Pinède, Juan-les-Pins, France.)

CD Three – Selections:
01. Introduction by George Wein
02. Bitches Brew
03. Paraphernalia
04. Nefertiti
05. Masqualero (incomplete)
06. This
(Recorded 11/5/69 at “The Newport Jazz Festival In Europe,” Folkets Hus, Stockholm.)

DVD – Selections:
01. Introduction by John O’Brien-Docker
02. Directions
03. Bitches Brew
04. It’s About That Time
05. I Fall In Love Too Easily
06. Sanctuary
07. The Theme
(Recorded 11/7/69 at Berliner Jazztage in the Berlin Philharmonie.)

musicians
Miles Davis - trumpet
Wayne Shorter - tenor and sprano saxophones
Chick Corea - electric piano, piano
Dave Holland - bass
Jack DeJohnette - drums

Produced for release by Richard Seidel and Michael Cuscuna


Exact Audio Copy V1.0 beta 3 from 29. August 2011

EAC extraction logfile from 1. February 2013, 19:57

Miles Davis Quintet / Live in Europe 1969-The Bootleg Series, Vol. 2 (Disc 1)

Used drive : PLEXTOR DVDR PX-L890SA Adapter: 2 ID: 1

Read mode : Secure
Utilize accurate stream : Yes
Defeat audio cache : Yes
Make use of C2 pointers : No

Read offset correction : 6
Overread into Lead-In and Lead-Out : No
Fill up missing offset samples with silence : Yes
Delete leading and trailing silent blocks : No
Null samples used in CRC calculations : Yes
Used interface : Native Win32 interface for Win NT & 2000
Gap handling : Appended to previous track

Used output format : User Defined Encoder
Selected bitrate : 256 kBit/s
Quality : High
Add ID3 tag : No
Command line compressor : C:\Program Files (x86)\Exact Audio Copy\FLAC\FLAC.EXE
Additional command line options : -8 -V -T "ARTIST=%artist%" -T "TITLE=%title%" -T "ALBUM=%albumtitle%" -T "DATE=%year%" -T "TRACKNUMBER=%tracknr%" -T "TOTALTRACKS=%numtracks%" -T "GENRE=%genre%" -T "ALBUMARTIST=%albumartist%" -T "ALBUM ARTIST=%albumartist%" -T "COMMENT=EAC Secure Mode, Test & Copy, AccurateRip, FLAC -8" %source%


TOC of the extracted CD

Track | Start | Length | Start sector | End sector
––––––––––––––––––––––––––––-
1 | 0:00.43 | 0:27.03 | 43 | 2070
2 | 0:27.46 | 6:06.07 | 2071 | 29527
3 | 6:33.53 | 9:10.27 | 29528 | 70804
4 | 15:44.05 | 13:52.41 | 70805 | 133245
5 | 29:36.46 | 11:37.63 | 133246 | 185583
6 | 41:14.34 | 8:58.39 | 185584 | 225972
7 | 50:12.73 | 9:23.54 | 225973 | 268251
8 | 59:36.52 | 4:15.33 | 268252 | 287409
9 | 63:52.10 | 0:53.43 | 287410 | 291427


Track 1

Filename F:\Flac Rips\01 - Introduction by Andre Francis.wav

Pre-gap length 0:00:02.43

Peak level 63.8 %
Extraction speed 1.5 X
Track quality 100.0 %
Test CRC 05E51EA1
Copy CRC 05E51EA1
Track not present in AccurateRip database
Copy OK

Track 2

Filename F:\Flac Rips\02 - Directions.wav

Peak level 60.2 %
Extraction speed 4.2 X
Track quality 100.0 %
Test CRC EAB07FE7
Copy CRC EAB07FE7
Track not present in AccurateRip database
Copy OK

Track 3

Filename F:\Flac Rips\03 - Miles Runs the Voodoo Down.wav

Peak level 68.6 %
Extraction speed 5.0 X
Track quality 100.0 %
Test CRC 73269611
Copy CRC 73269611
Track not present in AccurateRip database
Copy OK

Track 4

Filename F:\Flac Rips\04 - Milestones.wav

Peak level 75.0 %
Extraction speed 6.0 X
Track quality 100.0 %
Test CRC 5887AA90
Copy CRC 5887AA90
Track not present in AccurateRip database
Copy OK

Track 5

Filename F:\Flac Rips\05 - Footprints.wav

Peak level 69.0 %
Extraction speed 6.3 X
Track quality 99.9 %
Test CRC 3BDDBA3D
Copy CRC 3BDDBA3D
Track not present in AccurateRip database
Copy OK

Track 6

Filename F:\Flac Rips\06 - 'Round Midnight.wav

Peak level 58.9 %
Extraction speed 7.3 X
Track quality 100.0 %
Test CRC E2CBC420
Copy CRC E2CBC420
Track not present in AccurateRip database
Copy OK

Track 7

Filename F:\Flac Rips\07 - It's about That Time.wav

Peak level 71.3 %
Extraction speed 7.3 X
Track quality 99.9 %
Test CRC FBA1D27B
Copy CRC FBA1D27B
Track not present in AccurateRip database
Copy OK

Track 8

Filename F:\Flac Rips\08 - Sanctuary.wav

Peak level 67.0 %
Extraction speed 7.6 X
Track quality 100.0 %
Test CRC 4DB2A263
Copy CRC 4DB2A263
Track not present in AccurateRip database
Copy OK

Track 9

Filename F:\Flac Rips\09 - The Theme.wav

Peak level 67.3 %
Extraction speed 5.0 X
Track quality 100.0 %
Test CRC 9436A610
Copy CRC 9436A610
Track not present in AccurateRip database
Copy OK


None of the tracks are present in the AccurateRip database

No errors occurred

End of status report

==== Log checksum 5E461168BA03672862FBA949CC110E8F6F085ADE9F3C4A249ADE539DA8CBED63 ====


–––– AUTOMOD –– AUTOMOD –– AUTOMOD –– AUTOMOD –– AUTOMOD –– AUTOMOD ––––

Exact Audio Copy V1.0 beta 3 from 29. August 2011

EAC extraction logfile from 2. February 2013, 11:45

Miles Davis Quintet / Live in Europe 1969: The Bootleg Series, Vol. 2 (Disc 2)

Used drive : PLEXTOR DVDR PX-L890SA Adapter: 2 ID: 1

Read mode : Secure
Utilize accurate stream : Yes
Defeat audio cache : Yes
Make use of C2 pointers : No

Read offset correction : 6
Overread into Lead-In and Lead-Out : No
Fill up missing offset samples with silence : Yes
Delete leading and trailing silent blocks : No
Null samples used in CRC calculations : Yes
Used interface : Native Win32 interface for Win NT & 2000
Gap handling : Appended to previous track

Used output format : User Defined Encoder
Selected bitrate : 256 kBit/s
Quality : High
Add ID3 tag : No
Command line compressor : C:\Program Files (x86)\Exact Audio Copy\FLAC\FLAC.EXE
Additional command line options : -8 -V -T "ARTIST=%artist%" -T "TITLE=%title%" -T "ALBUM=%albumtitle%" -T "DATE=%year%" -T "TRACKNUMBER=%tracknr%" -T "TOTALTRACKS=%numtracks%" -T "GENRE=%genre%" -T "ALBUMARTIST=%albumartist%" -T "ALBUM ARTIST=%albumartist%" -T "COMMENT=EAC Secure Mode, Test & Copy, AccurateRip, FLAC -8" %source%


TOC of the extracted CD

Track | Start | Length | Start sector | End sector
––––––––––––––––––––––––––––-
1 | 0:00.43 | 0:26.14 | 43 | 2006
2 | 0:26.57 | 6:17.59 | 2007 | 30340
3 | 6:44.41 | 10:36.56 | 30341 | 78096
4 | 17:21.22 | 2:54.53 | 78097 | 91199
5 | 20:16.00 | 8:28.13 | 91200 | 129312
6 | 28:44.13 | 8:46.59 | 129313 | 168821
7 | 37:30.72 | 13:34.40 | 168822 | 229911
8 | 51:05.37 | 8:50.39 | 229912 | 269700
9 | 59:56.01 | 3:32.38 | 269701 | 285638
10 | 63:28.39 | 0:48.06 | 285639 | 289244


Track 1

Filename F:\Flac Rips\01 - Introduction by Andre Francis.wav

Pre-gap length 0:00:02.43

Peak level 82.0 %
Extraction speed 1.6 X
Track quality 100.0 %
Test CRC A085BA1C
Copy CRC A085BA1C
Track not present in AccurateRip database
Copy OK

Track 2

Filename F:\Flac Rips\02 - Directions.wav

Peak level 87.8 %
Extraction speed 3.6 X
Track quality 99.9 %
Test CRC B0CFD355
Copy CRC B0CFD355
Track not present in AccurateRip database
Copy OK

Track 3

Filename F:\Flac Rips\03 - Spanish Key.wav

Peak level 94.6 %
Extraction speed 4.6 X
Track quality 99.9 %
Test CRC D7C9602C
Copy CRC D7C9602C
Track not present in AccurateRip database
Copy OK

Track 4

Filename F:\Flac Rips\04 - I Fall in Love Too Easily.wav

Peak level 70.9 %
Extraction speed 4.9 X
Track quality 100.0 %
Test CRC 0586CC33
Copy CRC 0586CC33
Track not present in AccurateRip database
Copy OK

Track 5

Filename F:\Flac Rips\05 - Masqualero.wav

Peak level 89.1 %
Extraction speed 6.0 X
Track quality 100.0 %
Test CRC EBB7C746
Copy CRC EBB7C746
Track not present in AccurateRip database
Copy OK

Track 6

Filename F:\Flac Rips\06 - Miles Runs the Voodoo Down.wav

Peak level 92.1 %
Extraction speed 6.6 X
Track quality 100.0 %
Test CRC 3E587CF5
Copy CRC 3E587CF5
Track not present in AccurateRip database
Copy OK

Track 7

Filename F:\Flac Rips\07 - No Blues.wav

Peak level 98.7 %
Extraction speed 7.3 X
Track quality 100.0 %
Test CRC 0C784567
Copy CRC 0C784567
Track not present in AccurateRip database
Copy OK

Track 8

Filename F:\Flac Rips\08 - Nefertiti.wav

Peak level 78.3 %
Extraction speed 7.0 X
Track quality 99.9 %
Test CRC F0729EAF
Copy CRC F0729EAF
Track not present in AccurateRip database
Copy OK

Track 9

Filename F:\Flac Rips\09 - Sanctuary.wav

Peak level 69.9 %
Extraction speed 7.4 X
Track quality 100.0 %
Test CRC E72628D3
Copy CRC E72628D3
Track not present in AccurateRip database
Copy OK

Track 10

Filename F:\Flac Rips\10 - The Theme.wav

Peak level 90.8 %
Extraction speed 4.6 X
Track quality 100.0 %
Test CRC 56750036
Copy CRC 56750036
Track not present in AccurateRip database
Copy OK


None of the tracks are present in the AccurateRip database

No errors occurred

End of status report

==== Log checksum 91A4E61D6ECFBA6CD8C397ADE605D89D5E08D8922930EDD88C201909F47C64D3 ====


–––– AUTOMOD –– AUTOMOD –– AUTOMOD –– AUTOMOD –– AUTOMOD –– AUTOMOD ––––

Exact Audio Copy V1.0 beta 3 from 29. August 2011

EAC extraction logfile from 2. February 2013, 12:20

Miles Davis Quintet / Live in Europe 1969: The Bootleg Series, Vol. 2 (Disc 3)

Used drive : PLEXTOR DVDR PX-L890SA Adapter: 2 ID: 1

Read mode : Secure
Utilize accurate stream : Yes
Defeat audio cache : Yes
Make use of C2 pointers : No

Read offset correction : 6
Overread into Lead-In and Lead-Out : No
Fill up missing offset samples with silence : Yes
Delete leading and trailing silent blocks : No
Null samples used in CRC calculations : Yes
Used interface : Native Win32 interface for Win NT & 2000
Gap handling : Appended to previous track

Used output format : User Defined Encoder
Selected bitrate : 256 kBit/s
Quality : High
Add ID3 tag : No
Command line compressor : C:\Program Files (x86)\Exact Audio Copy\FLAC\FLAC.EXE
Additional command line options : -8 -V -T "ARTIST=%artist%" -T "TITLE=%title%" -T "ALBUM=%albumtitle%" -T "DATE=%year%" -T "TRACKNUMBER=%tracknr%" -T "TOTALTRACKS=%numtracks%" -T "GENRE=%genre%" -T "ALBUMARTIST=%albumartist%" -T "ALBUM ARTIST=%albumartist%" -T "COMMENT=EAC Secure Mode, Test & Copy, AccurateRip, FLAC -8" %source%


TOC of the extracted CD

Track | Start | Length | Start sector | End sector
––––––––––––––––––––––––––––-
1 | 0:00.43 | 0:30.74 | 43 | 2366
2 | 0:31.42 | 14:38.57 | 2367 | 68273
3 | 15:10.24 | 9:19.51 | 68274 | 110249
4 | 24:30.00 | 10:02.67 | 110250 | 155466
5 | 34:32.67 | 8:02.49 | 155467 | 191665
6 | 42:35.41 | 6:18.24 | 191666 | 220039


Track 1

Filename F:\Flac Rips\01 - Introduction by George Wein.wav

Pre-gap length 0:00:02.43

Peak level 36.7 %
Extraction speed 1.6 X
Track quality 100.0 %
Test CRC 7215EBC6
Copy CRC 7215EBC6
Track not present in AccurateRip database
Copy OK

Track 2

Filename F:\Flac Rips\02 - Bitches Brew.wav

Peak level 98.4 %
Extraction speed 4.2 X
Track quality 99.9 %
Test CRC B3594212
Copy CRC B3594212
Track not present in AccurateRip database
Copy OK

Track 3

Filename F:\Flac Rips\03 - Paraphernalia.wav

Peak level 98.1 %
Extraction speed 5.3 X
Track quality 100.0 %
Test CRC DC0A697E
Copy CRC DC0A697E
Track not present in AccurateRip database
Copy OK

Track 4

Filename F:\Flac Rips\04 - Nefertiti.wav

Peak level 98.5 %
Extraction speed 5.5 X
Track quality 99.9 %
Test CRC B78D6B1B
Copy CRC B78D6B1B
Track not present in AccurateRip database
Copy OK

Track 5

Filename F:\Flac Rips\05 - Masqualero [Incomplete].wav

Peak level 98.3 %
Extraction speed 6.6 X
Track quality 100.0 %
Test CRC A40AD4E5
Copy CRC A40AD4E5
Track not present in AccurateRip database
Copy OK

Track 6

Filename F:\Flac Rips\06 - This.wav

Pre-gap length 0:00:04.32

Peak level 98.9 %
Extraction speed 6.9 X
Track quality 100.0 %
Test CRC 973C5F6D
Copy CRC 973C5F6D
Track not present in AccurateRip database
Copy OK


None of the tracks are present in the AccurateRip database

No errors occurred

End of status report

==== Log checksum 06EBB94DC81E8A0613AAC34D6F622F54CB670C1CE4D2DACBE31FCD5D07FC0DC5 ====


I 12:21:55 DVD Decrypter Version 3.5.4.0 started!
I 12:21:55 Home Edition (6.1, Build 7601 : Service Pack 1)
I 12:21:55 Initialising SPTI…
I 12:21:55 Searching for SCSI / ATAPI devices…
I 12:21:55 Found 3 DVD-ROMs and 2 DVD-RAM/±RWs!
I 12:22:33 Operation Started!
I 12:22:33 Source Device: [2:1:0] PLEXTOR DVDR PX-L890SA 1.06 (I:) (ATA)
I 12:22:33 Source Media Type: DVD-ROM
I 12:22:33 Source Media Region Code: 1; 2; 3; 4; 5; 6; 7; 8
I 12:22:33 Source Media Copyright Protection System Type: CSS/CPPM
I 12:22:33 Source Media Implementation Identifier: Sonic Scenarist 3.1
I 12:22:33 Destination File: F:\Flac Rips\Miles Davis Quintet - Live in Europe 1969-The Bootleg Series, Vol. 2 (2013) [FLAC] {Bonus DVD9 PAL}\Image\MILES_DAVIS.ISO
I 12:22:33 File Splitting: None
I 12:22:33 Hardware Read Error Retries: 20
I 12:22:33 Detect Mastering Errors: No
I 12:22:33 Remove Macrovision Protection: Yes
I 12:22:33 Extracting Sectors… (LBA: 0 - 1440008)
I 12:22:34 Found IFO File: VIDEO_TS.IFO - (LBA: 287 - 294)
I 12:22:34 Found VOB File: VIDEO_TS.VOB - (LBA: 295 - 298) - KEY: N/A
I 12:22:34 Found BUP File: VIDEO_TS.BUP - (LBA: 315 - 322)
I 12:22:34 Found IFO File: VTS_01_0.IFO - (LBA: 323 - 344)
I 12:22:34 Found VOB File: VTS_01_0.VOB - (LBA: 345 - 56986) - KEY: CA 8E 99 44 25
I 12:22:47 Found VOB File: VTS_01_1.VOB - (LBA: 56987 - 581205) - KEY: CA 8E 99 44 25
I 12:24:18 Found VOB File: VTS_01_2.VOB - (LBA: 581206 - 1105377) - KEY: CA 8E 99 44 25
I 12:25:28 Found VOB File: VTS_01_3.VOB - (LBA: 1105378 - 1419526) - KEY: CA 8E 99 44 25
I 12:26:04 Found BUP File: VTS_01_0.BUP - (LBA: 1419543 - 1419564)
I 12:26:04 Found IFO File: VTS_02_0.IFO - (LBA: 1419565 - 1419573)
I 12:26:04 Found VOB File: VTS_02_0.VOB - (LBA: 1419574 - 1419577) - KEY: CC FF 39 AA EC
I 12:26:04 Found VOB File: VTS_02_1.VOB - (LBA: 1419578 - 1428576) - KEY: CC FF 39 AA EC
I 12:26:05 Found BUP File: VTS_02_0.BUP - (LBA: 1428593 - 1428601)
I 12:26:05 Found IFO File: VTS_03_0.IFO - (LBA: 1428602 - 1428610)
I 12:26:05 Found VOB File: VTS_03_0.VOB - (LBA: 1428611 - 1428614) - KEY: C5 10 A5 37 34
I 12:26:05 Found VOB File: VTS_03_1.VOB - (LBA: 1428615 - 1439982) - KEY: C5 10 A5 37 34
I 12:26:07 Found BUP File: VTS_03_0.BUP - (LBA: 1439999 - 1440007)
I 12:26:07 Operation Successfully Completed! - Duration: 00:03:34
I 12:26:07 Average Read Rate: 13.458 KB/s (9.7x) - Maximum Read Rate: 18.085 KB/s (13.1x)


––––––––––––––––––––––––––––––––––––––––
Analyzed: Miles Davis Quintet / Live in Europe 1969-The Bootleg Series, Vol. 2 (Disc 1)
––––––––––––––––––––––––––––––––––––––––

DR Peak RMS Duration Track
––––––––––––––––––––––––––––––––––––––––
DR15 -3.89 dB -22.05 dB 0:27 01-Introduction by Andre Francis
DR12 -4.40 dB -18.77 dB 6:06 02-Directions
DR11 -3.27 dB -18.01 dB 9:10 03-Miles Runs the Voodoo Down
DR12 -2.49 dB -17.29 dB 13:53 04-Milestones
DR12 -3.22 dB -18.11 dB 11:38 05-Footprints
DR12 -4.59 dB -19.39 dB 8:59 06-'Round Midnight
DR13 -2.93 dB -18.74 dB 9:24 07-It's about That Time
DR10 -3.48 dB -16.53 dB 4:15 08-Sanctuary
DR10 -3.43 dB -18.47 dB 0:54 09-The Theme
––––––––––––––––––––––––––––––––––––––––

Number of tracks: 9
Official DR value: DR12

Samplerate: 44100 Hz
Channels: 2
Bits per sample: 16
Bitrate: 461 kbps
Codec: FLAC
================================================================================
––––––––––––––––––––––––––––––––––––––––
Analyzed: Miles Davis Quintet / Live in Europe 1969: The Bootleg Series, Vol. 2 (Disc 2)
––––––––––––––––––––––––––––––––––––––––

DR Peak RMS Duration Track
––––––––––––––––––––––––––––––––––––––––
DR14 -1.72 dB -19.08 dB 0:26 01-Introduction by Andre Francis
DR10 -1.13 dB -13.90 dB 6:18 02-Directions
DR12 -0.48 dB -14.66 dB 10:37 03-Spanish Key
DR9 -2.98 dB -15.84 dB 2:55 04-I Fall in Love Too Easily
DR11 -1.00 dB -14.30 dB 8:28 05-Masqualero
DR11 -0.71 dB -14.38 dB 8:47 06-Miles Runs the Voodoo Down
DR11 -0.11 dB -15.33 dB 13:35 07-No Blues
DR10 -2.12 dB -16.02 dB 8:51 08-Nefertiti
DR8 -3.10 dB -14.38 dB 3:33 09-Sanctuary
DR12 -0.84 dB -16.79 dB 0:48 10-The Theme
––––––––––––––––––––––––––––––––––––––––

Number of tracks: 10
Official DR value: DR11

Samplerate: 44100 Hz
Channels: 2
Bits per sample: 16
Bitrate: 490 kbps
Codec: FLAC
================================================================================
––––––––––––––––––––––––––––––––––––––––
Analyzed: Miles Davis Quintet / Live in Europe 1969: The Bootleg Series, Vol. 2 (Disc 3)
––––––––––––––––––––––––––––––––––––––––

DR Peak RMS Duration Track
––––––––––––––––––––––––––––––––––––––––
DR13 -8.69 dB -29.83 dB 0:31 01-Introduction by George Wein
DR10 -0.14 dB -13.54 dB 14:39 02-Bitches Brew
DR10 -0.16 dB -13.99 dB 9:20 03-Paraphernalia
DR11 -0.13 dB -14.84 dB 10:03 04-Nefertiti
DR11 -0.15 dB -14.68 dB 8:03 05-Masqualero [Incomplete]
DR10 -0.09 dB -12.81 dB 6:18 06-This
––––––––––––––––––––––––––––––––––––––––

Number of tracks: 6
Official DR value: DR11

Samplerate: 44100 Hz
Channels: 2
Bits per sample: 16
Bitrate: 542 kbps
Codec: FLAC
================================================================================

Miles Davis Quintet - Live In Europe 1969-The Bootleg Series, Vol.2 (2013) [3CD+DVD] {Columbia} [Re-Up]
Miles Davis Quintet - Live In Europe 1969-The Bootleg Series, Vol.2 (2013) [3CD+DVD] {Columbia} [Re-Up]
Miles Davis Quintet - Live In Europe 1969-The Bootleg Series, Vol.2 (2013) [3CD+DVD] {Columbia} [Re-Up]
Miles Davis Quintet - Live In Europe 1969-The Bootleg Series, Vol.2 (2013) [3CD+DVD] {Columbia} [Re-Up]

Miles Davis Quintet - Live In Europe 1969-The Bootleg Series, Vol.2 (2013) [3CD+DVD] {Columbia} [Re-Up]
Miles Davis Quintet - Live In Europe 1969-The Bootleg Series, Vol.2 (2013) [3CD+DVD] {Columbia} [Re-Up]
Miles Davis Quintet - Live In Europe 1969-The Bootleg Series, Vol.2 (2013) [3CD+DVD] {Columbia} [Re-Up]


Thanks to the original ripper