Subcategories

Millie Jackson - 21 Of The Best (1971-1983) (1994)

Posted By: Designol
Millie Jackson - 21 Of The Best (1971-1983) (1994)

Millie Jackson - 21 Of The Best (1971-1983) (1994)
EAC | FLAC | Image (Cue&Log) ~ 486 Mb | Mp3 (CBR320) ~ 191 Mb | Scans included
R&B, Soul, Quiet Storm, Disco | Label: Ace/Southbound | # CDSEWD 100 | 01:19:14

Included here are all of the songs that made the lascivious Millie Jackson an item on R&B stations as one of the hottest live performers. From her debut "Child of God" to later R&B/country fusions like her hankie-wringing remake of "If You're Not in Love by Monday," Jackson's throaty voice demands your full attention. She rarely crossed over significantly, but "Ask Me What You Want," "My Man, a Sweet Man," "All the Way Lover," and her popular "It Hurts So Good," all made noticeable bangs on Billboard's R&B Singles Chart. 21 of the Best is a good introduction for Millie Jackson neophytes, and a grand collection of her greatest hits for those who purchased the original 45s and the occasional album.

Review by Andrew Hamilton, Allmusic.com

Millie Jackson - 21 Of The Best (1971-1983) (1994)



Tracklist:

01. A Child Of God (It's Hard To Believe) (3:36)
02. Ask Me What You Want (3:11)
03. My Man, A Sweet Man (2:35)
04. Breakaway (2:56)
05. It Hurts So Good (3:30)
06. How Do You Feel The Morning After (3:18)
07. (If Loving You Is Wrong) I Dont Wanna Be Right (3:30)
08. Loving Arms (3:44)
09. Bad Risk (4:30)
10. You Can't Turn Me Off (4:48)
11. If You're Back In Love By Monday (4:52)
12. All The Way Lover (5:51)
13. Go Out And Get Some (2:50)
14. Keep The Home Fire Burning (3:12)
15. Never Change Lovers In The Middle Of The Night (3:56)
16. Kiss You All Over (3:44)
17. This Is It (Pt2) (4:06)
18. It's Gonna Take Some Time This Time (4:02)
19. Do You Wanna Make Love (4:00)
20. The Blues Don't Get Tired Of Me (3:05)
21. I Feel Like Walking In The Rain (3:57)


Exact Audio Copy V0.99 prebeta 4 from 23. January 2008

Отчёт EAC об извлечении, выполненном 8. октября 2009, 13:07

Millie Jackson / 21 of The Best (1971-1983)

Дисковод: Optiarc DVD RW AD-7203S Adapter: 1 ID: 1

Режим чтения : Достоверность
Использование точного потока : Да
Отключение кэша аудио : Да
Использование указателей C2 : Нет

Коррекция смещения при чтении : 48
Способность читать области Lead-in и Lead-out : Нет
Заполнение пропущенных сэмплов тишиной : Да
Удаление блоков с тишиной в начале и конце : Нет
При вычислениях CRC использовались нулевые сэмплы : Да
Интерфейс : Встроенный Win32-интерфейс для Win NT/2000

Выходной формат : Пользовательский кодировщик
Выбранный битрейт : 1024 kBit/s
Качество : Высокий
Добавление ID3-тэга : Нет
Утилита сжатия : C:\Program Files\Exact Audio Copy\Flac\flac.exe
Дополнительные параметры : -V -8 -T "artist=%a" -T "title=%t" -T "album=%g" -T "date=%y" -T "tracknumber=%n" -T "genre=%m" %s


TOC извлечённого CD

Трек | Старт | Длительность | Начальный сектор | Конечный сектор
––––––––––––––––––––––––––––––––––-
1 | 0:00.32 | 3:36.15 | 32 | 16246
2 | 3:36.47 | 3:10.45 | 16247 | 30541
3 | 6:47.17 | 2:34.43 | 30542 | 42134
4 | 9:21.60 | 2:55.52 | 42135 | 55311
5 | 12:17.37 | 3:29.60 | 55312 | 71046
6 | 15:47.22 | 3:18.23 | 71047 | 85919
7 | 19:05.45 | 3:30.30 | 85920 | 101699
8 | 22:36.00 | 3:44.30 | 101700 | 118529
9 | 26:20.30 | 4:30.00 | 118530 | 138779
10 | 30:50.30 | 4:47.52 | 138780 | 160356
11 | 35:38.07 | 4:51.73 | 160357 | 182254
12 | 40:30.05 | 5:50.62 | 182255 | 208566
13 | 46:20.67 | 2:50.35 | 208567 | 221351
14 | 49:11.27 | 3:11.63 | 221352 | 235739
15 | 52:23.15 | 3:56.17 | 235740 | 253456
16 | 56:19.32 | 3:44.28 | 253457 | 270284
17 | 60:03.60 | 4:06.22 | 270285 | 288756
18 | 64:10.07 | 4:01.63 | 288757 | 306894
19 | 68:11.70 | 3:59.65 | 306895 | 324884
20 | 72:11.60 | 3:05.35 | 324885 | 338794
21 | 75:17.20 | 3:57.12 | 338795 | 356581


Характеристики диапазона извлечения и сообщения об ошибках

Выбранный диапазон

Имя файла D:\EAC-FOLDER\Millie Jackson - 21 of The Best (1971-1983)\Millie Jackson - 21 of The Best (1971-1983)\Millie Jackson - 21 of The Best (1971-1983).wav

Пиковый уровень 98.9 %
Качество диапазона 100.0 %
CRC теста 9DB1DE29
CRC копии 9DB1DE29
Копирование… OK

Ошибок не произошло


AccurateRip: сводка

Трек 1 нет в базе данных
Трек 2 нет в базе данных
Трек 3 нет в базе данных
Трек 4 нет в базе данных
Трек 5 нет в базе данных
Трек 6 нет в базе данных
Трек 7 нет в базе данных
Трек 8 нет в базе данных
Трек 9 нет в базе данных
Трек 10 нет в базе данных
Трек 11 нет в базе данных
Трек 12 нет в базе данных
Трек 13 нет в базе данных
Трек 14 нет в базе данных
Трек 15 нет в базе данных
Трек 16 нет в базе данных
Трек 17 нет в базе данных
Трек 18 нет в базе данных
Трек 19 нет в базе данных
Трек 20 нет в базе данных
Трек 21 нет в базе данных

Ни одного трека нет в базе AccurateRip

Конец отчёта

[CUETools log; Date: 27.05.2018 22:50:15; Version: 2.1.4]
Pregap length 00:00:32.
[CTDB TOCID: TRIJEOwImVRQXMRKYysoc5I6sTE-] found.
Track | CTDB Status
1 | (10/10) Accurately ripped
2 | (10/10) Accurately ripped
3 | (10/10) Accurately ripped
4 | (10/10) Accurately ripped
5 | (10/10) Accurately ripped
6 | (10/10) Accurately ripped
7 | (10/10) Accurately ripped
8 | (10/10) Accurately ripped
9 | (10/10) Accurately ripped
10 | (10/10) Accurately ripped
11 | (10/10) Accurately ripped
12 | (10/10) Accurately ripped
13 | (10/10) Accurately ripped
14 | (10/10) Accurately ripped
15 | (10/10) Accurately ripped
16 | (10/10) Accurately ripped
17 | (10/10) Accurately ripped
18 | (10/10) Accurately ripped
19 | (10/10) Accurately ripped
20 | (10/10) Accurately ripped
21 | (10/10) Accurately ripped
[AccurateRip ID: 003a1bac-0388d2d5-34129215] found.
Track [ CRC | V2 ] Status
01 [50086ac9|723198e7] (2+0/8) Accurately ripped
02 [1d0a420e|d3f5afca] (2+0/8) Accurately ripped
03 [3f40b9c4|d6185c35] (2+0/8) Accurately ripped
04 [1d8b5be8|5bbb09d2] (0+0/6) No match
05 [7164e8d4|5bf2d3ec] (0+0/6) No match
06 [a2717eaa|c200f59d] (0+0/6) No match
07 [da76b387|e140ad69] (0+0/6) No match
08 [dec05c96|f1be126b] (2+0/8) Accurately ripped
09 [0e874d39|b42aa990] (2+0/8) Accurately ripped
10 [347d5eb0|5a094067] (2+0/8) Accurately ripped
11 [5ae2e4e6|9f0b07fb] (2+0/8) Accurately ripped
12 [cd94a4cb|479e0902] (2+0/8) Accurately ripped
13 [03e31064|5c297d0d] (2+0/8) Accurately ripped
14 [1f85cb66|68a4aa96] (2+0/8) Accurately ripped
15 [66a1ff0e|18ef8f2a] (2+0/8) Accurately ripped
16 [cb1feac1|84ddded8] (2+0/8) Accurately ripped
17 [0bd30868|319051f6] (2+0/8) Accurately ripped
18 [37bebb78|72579cb3] (2+0/8) Accurately ripped
19 [aefe1978|fb8cc4e4] (2+0/8) Accurately ripped
20 [6259b4ad|fcf132e8] (2+0/8) Accurately ripped
21 [059855db|499a21a3] (2+0/6) Accurately ripped
Offsetted by -837:
01 [05492b29] (0/8) No match (V2 was not tested)
02 [e57fa7f8] (0/8) No match (V2 was not tested)
03 [a5fed8c3] (0/8) No match (V2 was not tested)
04 [32cedba9] (0/6) No match (V2 was not tested)
05 [4cdecc60] (0/6) No match (V2 was not tested)
06 [7c1f2714] (0/6) No match (V2 was not tested)
07 [10b32d54] (0/6) No match (V2 was not tested)
08 [69b41159] (0/8) No match (V2 was not tested)
09 [0c43a744] (0/8) No match (V2 was not tested)
10 [77fd6b24] (0/8) No match (V2 was not tested)
11 [be308f04] (0/8) No match (V2 was not tested)
12 [daa8dbf6] (0/8) No match (V2 was not tested)
13 [9e7c6594] (0/8) No match (V2 was not tested)
14 [2f4233c0] (0/8) No match (V2 was not tested)
15 [80e77da8] (0/8) No match (V2 was not tested)
16 [96eced71] (0/8) No match (V2 was not tested)
17 [a288892f] (0/8) No match (V2 was not tested)
18 [66dccc22] (0/8) No match (V2 was not tested)
19 [4911f699] (0/8) No match (V2 was not tested)
20 [266eb003] (0/8) No match (V2 was not tested)
21 [8c44b0a3] (0/6) No match (V2 was not tested)
Offsetted by -349:
01 [bddd6029] (0/8) No match (V2 was not tested)
02 [435ba128] (0/8) No match (V2 was not tested)
03 [c1df858b] (0/8) No match (V2 was not tested)
04 [494728e1] (0/6) No match (V2 was not tested)
05 [78cc5700] (0/6) No match (V2 was not tested)
06 [40cd2c44] (0/6) No match (V2 was not tested)
07 [7dc5712c] (0/6) No match (V2 was not tested)
08 [6b452d01] (0/8) No match (V2 was not tested)
09 [98bf82ac] (0/8) No match (V2 was not tested)
10 [bf0c6084] (0/8) No match (V2 was not tested)
11 [b588ef94] (0/8) No match (V2 was not tested)
12 [b50f765e] (0/8) No match (V2 was not tested)
13 [f2131814] (0/8) No match (V2 was not tested)
14 [95b88570] (0/8) No match (V2 was not tested)
15 [3b736d58] (0/8) No match (V2 was not tested)
16 [bd9e13f1] (0/8) No match (V2 was not tested)
17 [eaeeb1b7] (0/8) No match (V2 was not tested)
18 [ade05f52] (0/8) No match (V2 was not tested)
19 [9417d0d1] (0/8) No match (V2 was not tested)
20 [38d9bcd3] (0/8) No match (V2 was not tested)
21 [e9a3a463] (0/6) No match (V2 was not tested)
Offsetted by -319:
01 [a8afede9] (0/8) No match (V2 was not tested)
02 [7424f4ac] (0/8) No match (V2 was not tested)
03 [98920e11] (0/8) No match (V2 was not tested)
04 [f06e07db] (0/6) No match (V2 was not tested)
05 [de1f23b8] (0/6) No match (V2 was not tested)
06 [89beb0c8] (0/6) No match (V2 was not tested)
07 [88ac55de] (0/6) No match (V2 was not tested)
08 [b09cc8ef] (0/8) No match (V2 was not tested)
09 [5d300aea] (0/8) No match (V2 was not tested)
10 [fb05f3cc] (0/8) No match (V2 was not tested)
11 [9cdf27e0] (0/8) No match (V2 was not tested)
12 [c16fffdc] (0/8) No match (V2 was not tested)
13 [7d8220f4] (0/8) No match (V2 was not tested)
14 [40bdb254] (0/8) No match (V2 was not tested)
15 [9ada74bc] (0/8) No match (V2 was not tested)
16 [e0854bd1] (0/8) No match (V2 was not tested)
17 [c56a7b8d] (0/8) No match (V2 was not tested)
18 [81fad256] (0/8) No match (V2 was not tested)
19 [47eb0f8b] (0/8) No match (V2 was not tested)
20 [f8ef01cf] (0/8) No match (V2 was not tested)
21 [52008fb3] (0/6) No match (V2 was not tested)

Track Peak [ CRC32 ] [W/O NULL] [ LOG ]
– 98,9 [9DB1DE29] [49DE7DE8] CRC32
01 79,2 [AEAD36FA] [18F05002]
02 82,6 [67560FCB] [CD05410C]
03 92,8 [33E61A95] [2C3A2963]
04 97,2 [C10AE82E] [4FCEB1DE]
05 97,5 [7A184B49] [77162810]
06 90,6 [14FC224D] [3D7C27AF]
07 90,3 [4E6A3F9B] [3A108B2D]
08 94,8 [1049FC24] [036D4E7E]
09 97,5 [68397F26] [4D1DB6D3]
10 98,4 [B99544B6] [A3C34CB9]
11 97,2 [3E73F9D1] [CB557F4E]
12 97,5 [F8F05317] [A23C614F]
13 98,1 [475C96D2] [4C3BF94B]
14 97,1 [F34B6561] [EB927944]
15 96,8 [1574BAFE] [6285DA5A]
16 95,6 [0C92BF47] [6A158063]
17 96,1 [1999CBB9] [9C0A6FC0]
18 89,0 [11A6B45A] [00C16796]
19 94,9 [C2849C05] [6CF114A6]
20 98,9 [23D0738B] [1175FE9C]
21 81,2 [7D559096] [5667BADB]

foobar2000 1.2 / Dynamic Range Meter 1.1.1
log date: 2018-05-27 22:51:26

––––––––––––––––––––––––––––––––––––––––
Analyzed: Millie Jackson / 21 of The Best (1971-1983)
––––––––––––––––––––––––––––––––––––––––

DR Peak RMS Duration Track
––––––––––––––––––––––––––––––––––––––––
DR10 -2.03 dB -14.80 dB 3:36 01-A Child Of God (It's Hard To Believe)
DR9 -1.66 dB -12.48 dB 3:11 02-Ask Me What You Want
DR9 -0.64 dB -11.20 dB 2:35 03-My Man, A Sweet Man
DR9 -0.24 dB -10.92 dB 2:56 04-Breakaway
DR10 -0.21 dB -13.01 dB 3:30 05-It Hurts So Good
DR9 -0.86 dB -12.85 dB 3:18 06-How Do You Feel The Morning After
DR10 -0.88 dB -12.36 dB 3:30 07-(If Loving You Is Wrong) I Dont Wanna Be Right
DR9 -0.46 dB -12.93 dB 3:44 08-Loving Arms
DR10 -0.22 dB -11.74 dB 4:30 09-Bad Risk
DR9 -0.14 dB -12.26 dB 4:48 10-You Can't Turn Me Off
DR11 -0.24 dB -14.35 dB 4:52 11-If You're Back In Love By Monday
DR10 -0.21 dB -13.89 dB 5:51 12-All The Way Lover
DR10 -0.16 dB -12.49 dB 2:50 13-Go Out And Get Some
DR11 -0.25 dB -13.22 dB 3:12 14-Keep The Home Fire Burning
DR10 -0.28 dB -12.91 dB 3:56 15-Never Change Lovers In The Middle Of The Night
DR12 -0.38 dB -14.31 dB 3:44 16-Kiss You All Over
DR12 -0.34 dB -15.40 dB 4:06 17-This Is It (Pt2)
DR13 -1.01 dB -17.89 dB 4:02 18-It's Gonna Take Some Time This Time
DR12 -0.45 dB -15.40 dB 4:00 19-Do You Wanna Make Love
DR11 -0.09 dB -13.58 dB 3:05 20-The Blues Don't Get Tired Of Me
DR13 -1.81 dB -16.78 dB 3:57 21-I Feel Like Walking In The Rain
––––––––––––––––––––––––––––––––––––––––

Number of tracks: 21
Official DR value: DR10

Samplerate: 44100 Hz
Channels: 2
Bits per sample: 16
Bitrate: 839 kbps
Codec: FLAC
================================================================================

Millie Jackson - 21 Of The Best (1971-1983) (1994)

Millie Jackson - 21 Of The Best (1971-1983) (1994)