Subcategories

Mia Martina - Devotion (2011) {CP}

Posted By: TestTickles
Mia Martina - Devotion (2011) {CP}

Mia Martina - Devotion (2011) {CP}
EAC Rip | FLAC with CUE and LOG | scans | 318 mb
MP3 CBR 320 kbps | RAR | 97 mb
Genre: modern pop, dance pop, electronic pop

Devotion is the 2011 CD by Canadian singist Mia Martina. This came out on the CP label.

01. Stereo Love (with Edward Maya)
02. Latin Moon
03. Devotion
04. Missing You
05. Go Crazy (featuring Adrian Sina)
06. Stay With Me
07. In Your Arms (featuring Jump Smokers & Belly)
08. Miles Away
09. Burning
10. Turn It Up (featuring Belly & Danny Fernandes)
11. Chasing The Rush
12. Phare de la Lune (Latin Moon) '

Exact Audio Copy V0.99 prebeta 5 from 4. May 2009

EAC extraction logfile from 22. May 2012, 11:06

Mia Martina / Devotion

Used drive : HL-DT-STDVDRAM GSA-T20N Adapter: 0 ID: 0

Read mode : Secure
Utilize accurate stream : Yes
Defeat audio cache : Yes
Make use of C2 pointers : No

Read offset correction : 667
Overread into Lead-In and Lead-Out : No
Fill up missing offset samples with silence : Yes
Delete leading and trailing silent blocks : No
Null samples used in CRC calculations : Yes
Used interface : Native Win32 interface for Win NT & 2000

Used output format : User Defined Encoder
Selected bitrate : 768 kBit/s
Quality : High
Add ID3 tag : No
Command line compressor : C:\cuntfist\FLAC\Mia Martina - Devotion (2011) [FLAC] {CP}\Program Files\Exact Audio Copy\Flac\flac.exe
Additional command line options : -6 -V -T "ARTIST=%a" -T "TITLE=%t" -T "ALBUM=%g" -T "DATE=%y" -T "TRACKNUMBER=%n" -T "GENRE=%m" -T "COMMENT=%e" %s -o %d


TOC of the extracted CD

Track | Start | Length | Start sector | End sector
––––––––––––––––––––––––––––-
1 | 0:00.00 | 4:07.23 | 0 | 18547
2 | 4:07.23 | 3:45.24 | 18548 | 35446
3 | 7:52.47 | 4:02.56 | 35447 | 53652
4 | 11:55.28 | 3:48.51 | 53653 | 70803
5 | 15:44.04 | 3:10.43 | 70804 | 85096
6 | 18:54.47 | 3:28.63 | 85097 | 100759
7 | 22:23.35 | 3:21.35 | 100760 | 115869
8 | 25:44.70 | 3:51.41 | 115870 | 133235
9 | 29:36.36 | 3:22.22 | 133236 | 148407
10 | 32:58.58 | 3:05.68 | 148408 | 162350
11 | 36:04.51 | 3:22.33 | 162351 | 177533
12 | 39:27.09 | 3:43.59 | 177534 | 194317


Range status and errors

Selected range

Filename C:\cuntfist\FLAC\Mia Martina - Devotion (2011) [FLAC] {CP}\Mia Martina - Devotion.wav

Peak level 99.9 %
Range quality 100.0 %
Copy CRC 80AFDA80
Copy OK

No errors occurred


AccurateRip summary

Track 1 not present in database
Track 2 not present in database
Track 3 not present in database
Track 4 not present in database
Track 5 not present in database
Track 6 not present in database
Track 7 not present in database
Track 8 not present in database
Track 9 not present in database
Track 10 not present in database
Track 11 not present in database
Track 12 not present in database

None of the tracks are present in the AccurateRip database

End of status report


Mia Martina - Devotion (2011) {CP}


Thank you to the original uploader.