Subcategories

Modern Talking - The Compact Collection (1986)

Posted By: v3122
Modern Talking - The Compact Collection (1986)

Modern Talking - The Compact Collection (1986)
EAC | Flac(Image) + Cue + Log & MP3 CBR 320Kbps
Hansa, 8.11426 | ~ 313 or 109 Mb | Artwork(jpg) -> 19 Mb
Europop, Synth Pop, Euro-Disco

~ Compilation. Contains 5 Maxi Version Plus The Instrumental Version Of "Brother Louie '86". ~

Modern Talking - The Compact Collection (1986):

Modern Talking - The Compact Collection (1986)

Tracklist:

01. You're My Heart, You're My Soul (5:37)
02. You Can Win If You Want (5:21)
03. Cheri Cheri Lady (4:53)
04. Brother Louie (5:21)
05. Atlantis Is Calling (S.O.S. For Love) (5:24)
06. Just We Two (Mona Lisa) (3:59)
07. Save Me - Don't Break Me (3:48)
08. Only Love Can Break My Heart (3:38)
09. Brother Louie (Instrumental) (4:08)
10. Let's Talk About Love (3:55)

Exact Audio Copy V0.99 prebeta 5 from 4. May 2009

Отчёт EAC об извлечении, выполненном 16. июня 2009, 23:54

Modern Talking / The Compact Collection

Дисковод: ASUS DRW-2014S1T Adapter: 4 ID: 0

Режим чтения : Достоверность
Использование точного потока : Да
Отключение кэша аудио : Да
Использование указателей C2 : Нет

Коррекция смещения при чтении : 6
Способность читать области Lead-in и Lead-out : Нет
Заполнение пропущенных сэмплов тишиной : Да
Удаление блоков с тишиной в начале и конце : Нет
При вычислениях CRC использовались нулевые сэмплы : Да
Интерфейс : Установленный внешний ASPI-интерфейс

Выходной формат : Внутренние WAV-операции
Формат сэмплов : 44.100 Гц; 16 бит; стерео


TOC извлечённого CD

Трек | Старт | Длительность | Начальный сектор | Конечный сектор
––––––––––––––––––––––––––––––––––-
1 | 0:00.00 | 5:36.72 | 0 | 25271
2 | 5:36.72 | 5:21.30 | 25272 | 49376
3 | 10:58.27 | 4:53.15 | 49377 | 71366
4 | 15:51.42 | 5:21.23 | 71367 | 95464
5 | 21:12.65 | 5:23.70 | 95465 | 119759
6 | 26:36.60 | 3:58.65 | 119760 | 137674
7 | 30:35.50 | 3:48.12 | 137675 | 154786
8 | 34:23.62 | 3:38.13 | 154787 | 171149
9 | 38:02.00 | 4:08.15 | 171150 | 189764
10 | 42:10.15 | 3:54.62 | 189765 | 207376


Характеристики диапазона извлечения и сообщения об ошибках

Выбранный диапазон

Имя файла Z:\Temp\Modern Talking - The Compact Collection.wav

Пиковый уровень 91.0 %
Качество диапазона 100.0 %
CRC теста 6CC2F983
CRC копии 6CC2F983
Копирование… OK

Ошибок не произошло


AccurateRip: сводка

Трек 1 точное извлечение (доверие 1) [D75D0B77]
Трек 2 точное извлечение (доверие 1) [E61CA9B4]
Трек 3 точное извлечение (доверие 1) [8E6CAD3C]
Трек 4 точное извлечение (доверие 1) [277D44A9]
Трек 5 точное извлечение (доверие 1) [161E1C7E]
Трек 6 нет в базе данных
Трек 7 нет в базе данных
Трек 8 нет в базе данных
Трек 9 нет в базе данных
Трек 10 нет в базе данных

5 трек(и) скопированы точно
5 трек(и) не содержатся в базе AccurateRip

Некоторые треки не прошли проверку на точность

Конец отчёта


[CUETools log; Date: 17.11.2019 20:40:51; Version: 2.1.4]
[AccurateRip ID: 0012a56b-009280ad-8e0acd0a] found.
Track [ CRC | V2 ] Status
01 [d75d0b77|175eeeee] (3+4/7) Accurately ripped
02 [e61ca9b4|3c4b5eec] (3+4/7) Accurately ripped
03 [8e6cad3c|34765fa2] (3+4/7) Accurately ripped
04 [277d44a9|7ea69024] (3+4/7) Accurately ripped
05 [161e1c7e|d86ae0d9] (3+4/7) Accurately ripped
06 [fdb76c87|d22cd932] (2+4/6) Accurately ripped
07 [46eb4c5b|0624213c] (2+4/6) Accurately ripped
08 [a806d516|86257074] (2+4/6) Accurately ripped
09 [ab64c298|7aca24f4] (2+4/6) Accurately ripped
10 [a9e1b0b7|560193f1] (2+4/6) Accurately ripped

Track Peak [ CRC32 ] [W/O NULL] [ LOG ]
– 91,0 [6CC2F983] [8AAAA087] CRC32
01 88,1 [11D4747E] [EE65AAE2]
02 71,5 [1150F881] [BA2739CB]
03 87,8 [6603B24B] [7031BA26]
04 86,7 [129222B5] [4C884D21]
05 86,5 [44A59DD6] [0C94C22C]
06 87,2 [98F779F5] [E57F1C47]
07 85,8 [7011A1B1] [6E4AB55E]
08 85,1 [B875FC8E] [B693470F]
09 91,0 [7D579554] [76084A50]
10 84,7 [65107EC9] [7A9DDD55]


Modern Talking - The Compact Collection (1986)

All thanks go to the original releaser

Modern Talking in my Blog

Download Modern Talking - The Compact Collection (1986):