Subcategories

Monty Python - Monty Python's Life of Brian (1979) [Re-Up]

Posted By: Designol
Monty Python - Monty Python's Life of Brian (1979) [Re-Up]

Monty Python - Monty Python's Life of Brian (1979)
EAC | FLAC | Tracks (Cue&Log) ~ 286 Mb | Mp3 (CBR320) ~ 136 Mb | Scans included
Label: Virgin Chattering | # VCCCD 009 | Time: 00:52:05
Sketch Comedy, Comedy Rock, Soundtracks

Soundtrack album for arguably the Python's best film (or at least their most controversial, talky, and profound). The group's take on the biblical epic focuses on Brian (Graham Chapman), mistaken for the messiah by a group of easily impressed locals. All the best bits from the movie are here, including the "Sermon on the Mount" (as misheard by "Mr. Big Nose"); the People's Liberation Front of Judea (or is it the Judean People's Liberation Front?); Brian's impromptu preaching ("He's making it up as he goes along!"), and the concluding song, "Always Look on the Bright Side of Life," sung by the cast as they hang crucified. The album offers little apart from the clips from the film, except for some studio banter between a producer (Eric Idle) and a useless announcer (Graham Chapman).

Review by Ted Mills, Allmusic.com

Monty Python - Monty Python's Life of Brian (1979) [Re-Up]



Tracklist:

01. Introduction (00:44)
02. Brian Song (00:19)
03. The Wise Men at the Manger (01:29)
04. Brian Song (continued) (02:32)
05. Sermon on the Mount (Big Nose) (01:58)
06. Stone Salesman (00:18)
07. Stoning (01:58)
08. Ex-Leper (Nortius Maximus) (01:16)
09. You Mean You Were Raped? (03:20)
10. Revolutionaries in the Amphitheatre (Loretta) (03:16)
11. Romans go Home (01:47)
12. What have the Romans ever done for us? (01:49)
13. Ben (01:40)
14. Brian before Pilate (Throw Him to the Floor) (02:45)
15. Prophets (01:12)
16. Beard Salesman (02:08)
17. Brian's Prophecy (01:21)
18. The Hermit (01:08)
19. He's not the Messiah (03:33)
20. He's a very naughty Boy (04:06)
21. Pilate sentences Brian (00:53)
22. Nisus Wettus (00:29)
23. Pilate with the Crowd (welease Wodger) (02:24)
24. Nisus Wettus with the Gaolers (01:38)
25. Release Brian (00:49)
26. Not so bad once you're up (00:29)
27. Revs salute Brian (01:19)
28. Cheeky is released (00:42)
29. Mandy to her Son (00:31)
30. Look on the bright Side of Life (All Things dull and ugly ) (03:58)


Exact Audio Copy V0.99 prebeta 5 from 4. May 2009

EAC extraction logfile from 21. August 2009, 22:00

Monty Python / Life Of Brian

Used drive : PIONEER DVD-RW DVR-108 Adapter: 3 ID: 0

Read mode : Secure
Utilize accurate stream : Yes
Defeat audio cache : Yes
Make use of C2 pointers : No

Read offset correction : 48
Overread into Lead-In and Lead-Out : No
Fill up missing offset samples with silence : Yes
Delete leading and trailing silent blocks : No
Null samples used in CRC calculations : Yes
Used interface : Native Win32 interface for Win NT & 2000
Gap handling : Appended to previous track

Used output format : Internal WAV Routines
Sample format : 44.100 Hz; 16 Bit; Stereo


TOC of the extracted CD

Track | Start | Length | Start sector | End sector
––––––––––––––––––––––––––––-
1 | 0:00.00 | 0:44.30 | 0 | 3329
2 | 0:44.30 | 0:19.22 | 3330 | 4776
3 | 1:03.52 | 1:29.20 | 4777 | 11471
4 | 2:32.72 | 2:32.33 | 11472 | 22904
5 | 5:05.30 | 1:58.25 | 22905 | 31779
6 | 7:03.55 | 0:18.07 | 31780 | 33136
7 | 7:21.62 | 1:58.50 | 33137 | 42036
8 | 9:20.37 | 1:16.05 | 42037 | 47741
9 | 10:36.42 | 3:20.68 | 47742 | 62809
10 | 13:57.35 | 3:16.20 | 62810 | 77529
11 | 17:13.55 | 1:47.35 | 77530 | 85589
12 | 19:01.15 | 1:49.40 | 85590 | 93804
13 | 20:50.55 | 1:40.27 | 93805 | 101331
14 | 22:31.07 | 2:45.58 | 101332 | 113764
15 | 25:16.65 | 1:12.47 | 113765 | 119211
16 | 26:29.37 | 2:08.18 | 119212 | 128829
17 | 28:37.55 | 1:21.45 | 128830 | 134949
18 | 29:59.25 | 1:08.10 | 134950 | 140059
19 | 31:07.35 | 3:33.12 | 140060 | 156046
20 | 34:40.47 | 4:06.33 | 156047 | 174529
21 | 38:47.05 | 0:53.42 | 174530 | 178546
22 | 39:40.47 | 0:29.60 | 178547 | 180781
23 | 40:10.32 | 2:24.43 | 180782 | 191624
24 | 42:35.00 | 1:38.05 | 191625 | 198979
25 | 44:13.05 | 0:49.25 | 198980 | 202679
26 | 45:02.30 | 0:29.50 | 202680 | 204904
27 | 45:32.05 | 1:19.70 | 204905 | 210899
28 | 46:52.00 | 0:42.72 | 210900 | 214121
29 | 47:34.72 | 0:31.43 | 214122 | 216489
30 | 48:06.40 | 3:58.72 | 216490 | 234411


Track 1

Filename I:\MONTY PYTHON\Life Of Brian (Virgin)\01 - Introduction.wav

Pre-gap length 0:00:02.00

Peak level 63.1 %
Track quality 100.0 %
Test CRC 03DFD85A
Copy CRC 03DFD85A
Accurately ripped (confidence 10) [3ED7177D]
Copy OK

Track 2

Filename I:\MONTY PYTHON\Life Of Brian (Virgin)\02 - Brian Song.wav

Peak level 88.7 %
Track quality 100.0 %
Test CRC B0DE3BE3
Copy CRC B0DE3BE3
Accurately ripped (confidence 10) [5031F365]
Copy OK

Track 3

Filename I:\MONTY PYTHON\Life Of Brian (Virgin)\03 - The Wise Men at the Manger.wav

Peak level 70.1 %
Track quality 100.0 %
Test CRC 71189901
Copy CRC 71189901
Accurately ripped (confidence 10) [B199501F]
Copy OK

Track 4

Filename I:\MONTY PYTHON\Life Of Brian (Virgin)\04 - Brian Song (continued).wav

Peak level 73.6 %
Track quality 99.9 %
Test CRC 51704040
Copy CRC 51704040
Accurately ripped (confidence 10) [B4A800AD]
Copy OK

Track 5

Filename I:\MONTY PYTHON\Life Of Brian (Virgin)\05 - Sermon on the Mount (Big Nose).wav

Peak level 53.0 %
Track quality 100.0 %
Test CRC 88595D55
Copy CRC 88595D55
Accurately ripped (confidence 10) [1DBCACC6]
Copy OK

Track 6

Filename I:\MONTY PYTHON\Life Of Brian (Virgin)\06 - Stone Salesman.wav

Peak level 58.9 %
Track quality 100.0 %
Test CRC 25D47136
Copy CRC 25D47136
Accurately ripped (confidence 10) [6DBB2614]
Copy OK

Track 7

Filename I:\MONTY PYTHON\Life Of Brian (Virgin)\07 - Stoning.wav

Peak level 55.2 %
Track quality 100.0 %
Test CRC A964748B
Copy CRC A964748B
Accurately ripped (confidence 10) [DD26A275]
Copy OK

Track 8

Filename I:\MONTY PYTHON\Life Of Brian (Virgin)\08 - Ex-Leper.wav

Peak level 49.4 %
Track quality 99.8 %
Test CRC 54CE3E46
Copy CRC 54CE3E46
Accurately ripped (confidence 10) [20196DB5]
Copy OK

Track 9

Filename I:\MONTY PYTHON\Life Of Brian (Virgin)\09 - You Mean You Were Raped (Nortius Maximus).wav

Peak level 59.0 %
Track quality 99.9 %
Test CRC A30FA9F4
Copy CRC A30FA9F4
Accurately ripped (confidence 10) [9C00B63F]
Copy OK

Track 10

Filename I:\MONTY PYTHON\Life Of Brian (Virgin)\10 - Revolutionaries in the Amphitheatre (Loretta).wav

Peak level 50.8 %
Track quality 100.0 %
Test CRC 2767D7E5
Copy CRC 2767D7E5
Accurately ripped (confidence 10) [0A27C547]
Copy OK

Track 11

Filename I:\MONTY PYTHON\Life Of Brian (Virgin)\11 - Romans Go Home.wav

Peak level 91.9 %
Track quality 100.0 %
Test CRC E56C46BE
Copy CRC E56C46BE
Accurately ripped (confidence 10) [ADA90D8F]
Copy OK

Track 12

Filename I:\MONTY PYTHON\Life Of Brian (Virgin)\12 - What Have the Romans Ever Done for Us .wav

Peak level 61.6 %
Track quality 100.0 %
Test CRC 02B0F68F
Copy CRC 02B0F68F
Accurately ripped (confidence 10) [62C6B96A]
Copy OK

Track 13

Filename I:\MONTY PYTHON\Life Of Brian (Virgin)\13 - Ben.wav

Peak level 63.3 %
Track quality 100.0 %
Test CRC 99AAF5F7
Copy CRC 99AAF5F7
Accurately ripped (confidence 10) [2AEB3322]
Copy OK

Track 14

Filename I:\MONTY PYTHON\Life Of Brian (Virgin)\14 - Brian Before Pilate (Throw Him to the Floor).wav

Peak level 61.6 %
Track quality 100.0 %
Test CRC 727EDC88
Copy CRC 727EDC88
Accurately ripped (confidence 10) [62268ED9]
Copy OK

Track 15

Filename I:\MONTY PYTHON\Life Of Brian (Virgin)\15 - Prophets.wav

Peak level 62.6 %
Track quality 100.0 %
Test CRC AE547206
Copy CRC AE547206
Accurately ripped (confidence 10) [D3F34065]
Copy OK

Track 16

Filename I:\MONTY PYTHON\Life Of Brian (Virgin)\16 - Beard Salesman.wav

Peak level 74.0 %
Track quality 100.0 %
Test CRC 52FE60AC
Copy CRC 52FE60AC
Accurately ripped (confidence 10) [527ED405]
Copy OK

Track 17

Filename I:\MONTY PYTHON\Life Of Brian (Virgin)\17 - Brian's Prophecy.wav

Peak level 55.2 %
Track quality 100.0 %
Test CRC BED2A319
Copy CRC BED2A319
Accurately ripped (confidence 10) [15ECC8FC]
Copy OK

Track 18

Filename I:\MONTY PYTHON\Life Of Brian (Virgin)\18 - The Hermit.wav

Peak level 70.0 %
Track quality 100.0 %
Test CRC D5DF1518
Copy CRC D5DF1518
Accurately ripped (confidence 11) [356C877C]
Copy OK

Track 19

Filename I:\MONTY PYTHON\Life Of Brian (Virgin)\19 - He's not the Messiah.wav

Peak level 81.6 %
Track quality 99.9 %
Test CRC 0DEA27E7
Copy CRC 0DEA27E7
Accurately ripped (confidence 9) [735B65D1]
Copy OK

Track 20

Filename I:\MONTY PYTHON\Life Of Brian (Virgin)\20 - He's a Very Naughty Boy.wav

Peak level 98.9 %
Track quality 100.0 %
Test CRC 5D0AC631
Copy CRC 5D0AC631
Accurately ripped (confidence 8) [E7AF3EFF]
Copy OK

Track 21

Filename I:\MONTY PYTHON\Life Of Brian (Virgin)\21 - Pilate Sentences Brian.wav

Peak level 45.4 %
Track quality 100.0 %
Test CRC 9F575318
Copy CRC 9F575318
Accurately ripped (confidence 10) [41C4F11B]
Copy OK

Track 22

Filename I:\MONTY PYTHON\Life Of Brian (Virgin)\22 - Nisus Wettus.wav

Peak level 45.6 %
Track quality 100.0 %
Test CRC E6D6A6BD
Copy CRC E6D6A6BD
Accurately ripped (confidence 10) [200DD75C]
Copy OK

Track 23

Filename I:\MONTY PYTHON\Life Of Brian (Virgin)\23 - Pilate with the Crowd (Welease Wodger).wav

Peak level 53.5 %
Track quality 100.0 %
Test CRC C4A2C9D5
Copy CRC C4A2C9D5
Accurately ripped (confidence 10) [1DB76F61]
Copy OK

Track 24

Filename I:\MONTY PYTHON\Life Of Brian (Virgin)\24 - Nisus Wettus with the Gaolers.wav

Peak level 53.0 %
Track quality 100.0 %
Test CRC 539927C5
Copy CRC 539927C5
Accurately ripped (confidence 10) [5587061C]
Copy OK

Track 25

Filename I:\MONTY PYTHON\Life Of Brian (Virgin)\25 - Release Brian.wav

Peak level 49.5 %
Track quality 100.0 %
Test CRC 90010B28
Copy CRC 90010B28
Accurately ripped (confidence 10) [DD61CFB8]
Copy OK

Track 26

Filename I:\MONTY PYTHON\Life Of Brian (Virgin)\26 - Not So Bad Once You're Up.wav

Peak level 58.7 %
Track quality 100.0 %
Test CRC 60B08231
Copy CRC 60B08231
Accurately ripped (confidence 10) [24240FCC]
Copy OK

Track 27

Filename I:\MONTY PYTHON\Life Of Brian (Virgin)\27 - Revs Salute Brian.wav

Peak level 55.4 %
Track quality 100.0 %
Test CRC DE0298D3
Copy CRC DE0298D3
Accurately ripped (confidence 10) [3CA078C3]
Copy OK

Track 28

Filename I:\MONTY PYTHON\Life Of Brian (Virgin)\28 - Cheeky Is Released.wav

Peak level 51.0 %
Track quality 100.0 %
Test CRC A4B63270
Copy CRC A4B63270
Accurately ripped (confidence 10) [A822E6DD]
Copy OK

Track 29

Filename I:\MONTY PYTHON\Life Of Brian (Virgin)\29 - Mandy to Her Son.wav

Peak level 54.6 %
Track quality 100.0 %
Test CRC 63AB8697
Copy CRC 63AB8697
Accurately ripped (confidence 10) [B2A3D875]
Copy OK

Track 30

Filename I:\MONTY PYTHON\Life Of Brian (Virgin)\30 - Look on the Bright Side of Life (All Things Dull and Ugly ).wav

Peak level 83.2 %
Track quality 100.0 %
Test CRC 41405D08
Copy CRC 41405D08
Accurately ripped (confidence 9) [7C7034AD]
Copy OK


All tracks accurately ripped

No errors occurred

End of status report

foobar2000 1.2 / Dynamic Range Meter 1.1.1
log date: 2016-04-28 15:25:11

––––––––––––––––––––––––––––––––––––––––
Analyzed: Monty Python / Life of Brian
––––––––––––––––––––––––––––––––––––––––

DR Peak RMS Duration Track
––––––––––––––––––––––––––––––––––––––––
DR10 -3.99 dB -17.85 dB 0:44 01-Introduction
DR7 -1.03 dB -12.45 dB 0:19 02-Brian Song
DR11 -3.08 dB -20.92 dB 1:29 03-The Wise Men at the Manger
DR9 -2.65 dB -13.51 dB 2:32 04-Brian Song (continued)
DR14 -5.50 dB -22.30 dB 1:58 05-Sermon on the Mount (Big Nose)
DR9 -4.60 dB -17.61 dB 0:18 06-Stone Salesman
DR9 -5.15 dB -16.94 dB 1:59 07-Stoning
DR11 -6.11 dB -19.71 dB 1:16 08-Ex-Leper (Nortius Maximus)
DR10 -4.57 dB -19.84 dB 3:21 09-You Mean You Were Raped?
DR13 -5.87 dB -21.63 dB 3:16 10-Revolutionaries in the Amphitheatre (Loretta)
DR13 -0.72 dB -19.46 dB 1:47 11-Romans go Home
DR12 -4.21 dB -21.40 dB 1:50 12-What have the Romans ever done for us?
DR10 -3.97 dB -17.15 dB 1:40 13-Ben
DR11 -4.20 dB -19.29 dB 2:46 14-Brian before Pilate (Throw Him to the Floor)
DR10 -4.06 dB -18.29 dB 1:13 15-Prophets
DR12 -2.60 dB -19.02 dB 2:08 16-Beard Salesman
DR9 -5.15 dB -16.56 dB 1:22 17-Brian's Prophecy
DR12 -3.09 dB -18.80 dB 1:08 18-The Hermit
DR14 -1.77 dB -18.49 dB 3:33 19-He's not the Messiah
DR12 -0.09 dB -18.30 dB 4:06 20-He's a very naughty Boy
DR11 -6.85 dB -20.46 dB 0:54 21-Pilate sentences Brian
DR12 -6.81 dB -21.19 dB 0:30 22-Nisus Wettus
DR8 -5.43 dB -17.01 dB 2:25 23-Pilate with the Crowd (welease Wodger)
DR12 -5.50 dB -21.12 dB 1:38 24-Nisus Wettus with the Gaolers
DR9 -6.10 dB -17.32 dB 0:49 25-Release Brian
DR9 -4.62 dB -17.55 dB 0:30 26-Not so bad once you're up
DR9 -5.12 dB -16.70 dB 1:20 27-Revs salute Brian
DR8 -5.85 dB -15.73 dB 0:43 28-Cheeky is released
DR11 -5.24 dB -20.00 dB 0:32 29-Mandy to her Son
DR11 -1.59 dB -15.88 dB 3:59 30-Look on the bright Side of Life (All Things dull and ugly )
––––––––––––––––––––––––––––––––––––––––

Number of tracks: 30
Official DR value: DR10

Samplerate: 44100 Hz
Channels: 2
Bits per sample: 16
Bitrate: 774 kbps
Codec: FLAC
================================================================================

Monty Python - Monty Python's Life of Brian (1979) [Re-Up]

Monty Python - Monty Python's Life of Brian (1979) [Re-Up]

All thanks to original releaser - DuckPlumber

More interesting music in My Blog