Tags
Language
Tags

Joseph Losey, Lorin Maazel, Orchestre du Theatre National de l’Opera de Raris - Mozart: Don Giovanni (2013/1979) [Blu-Ray]

Posted By:
Joseph Losey, Lorin Maazel, Orchestre du Theatre National de l’Opera de Raris - Mozart: Don Giovanni (2013/1979) [Blu-Ray]

Joseph Losey, Lorin Maazel, Orchestre du Théatre National de l’Opéra de Raris - Mozart: Don Giovanni (2013/1979) [Blu-Ray]
BluRay | BDMV | MPEG-4 AVC Video / 25522 kbps / 1080i / 23,976 fps | 176 min | 38,7 Gb
Audio1: Italian / DTS-HD Master Audio / 2.0 / 16-bit | Audio2: DTS-HD Master Audio / 5.1 / 48 kHz / 2230 kbps / 16-bit

BluRay-rip | AVC | MKV 1920x1080 / 4972 kbps / 23,976 fps | 176 min | 7,99 Gb
Audio: Italian / DTS / 6ch / 48.0 KHz / 16 bits
Classical | OliveFilms | Sub: English

Filmed on location in picturesque Vicenza, Italy, Wolfgang Amadeus Mozart’s operatic masterpiece Don Giovanni is beautifully translated to film by director Joseph Losey (The Servant) and Mozart’s incomparable music is performed by the legendary Paris opera, conducted by Lorin Maazel. Set in Seville in the 1600s, a young nobleman Don Giovanni (Ruggero Raimondi) is well-known philanderer with a long list of amorous conquests. After he attempts to seduce the beautiful Donna Anna (Edda Moser), her father’s battle to protect her honor ends in tragedy. Anna and her fiancé Don Octavio (Kenneth Riegel) pledge to seek revenge, while Giovanni continues to charm and trick the local women. The stellar cast also includes masterful opera stars John Macurdy as The Commendatore, Kiri Te Kanawa as Donna Elvira, Jose Van Dam as Leporello, Teresa Berganza as Zelina and Malcolm King as Massetto. The magnificent setting of a 16th-century mansion, incredible costumes and Vicenza’s mysterious canals make this film version of Don Giovanni a triumph.

Cast:
Don Giovanni - Ruggero Raimondi
Il Commendatore - John Macurdy
Donna Anna - Edda Moser
Don Ottavio - Kenneth Riegel
Donna Elvira - Kiri Te Kanawa
Leporello - José van Dam
Zerlina - Teresa Berganza
Masetto - Malcolm King
Orchestre et Choeur du Théatre National de l’Opéra de Raris
Conductor - Lorin Maazel
Film by Joseph Losey


Disc Title: DON GIOVANNI
Disc Size: 41 569 631 953 bytes
Protection: AACS
BD-Java: No
Playlist: 00004.MPLS
Size: 41 454 766 080 bytes
Length: 2:56:29.579
Total Bitrate: 31,32 Mbps
Video: MPEG-4 AVC Video / 25522 kbps / 1080p / 23,976 fps / 16:9 / High Profile 4.1
Audio: Italian / DTS-HD Master Audio / 5.1 / 48 kHz / 2230 kbps / 16-bit (DTS Core: 5.1 / 48 kHz / 1509 kbps / 16-bit)
Audio: Italian / DTS-HD Master Audio / 2.0 / 48 kHz / 1668 kbps / 16-bit (DTS Core: 2.0 / 48 kHz / 1509 kbps / 16-bit)
Subtitle: English / 39,599 kbps


General
Unique ID : 220650123061675766391595334639697177954 (0xA5FFAAFD0C89E6119D011DEBB11EAD62)
Complete name : C:\Don_Giovanni.mkv
Format : Matroska
Format version : Version 2
File size : 7.99 GiB
Duration : 2h 56mn
Overall bit rate : 6 485 Kbps
Movie name : Don_Giovanni
Encoded date : UTC 2016-06-29 12:50:10
Writing application : DVDFab 9.1.6.8
Writing library : libebml v0.7.8 + libmatroska v0.8.1

Video
ID : 1
Format : AVC
Format/Info : Advanced Video Codec
Format profile : High@L4.1
Format settings, CABAC : Yes
Format settings, ReFrames : 2 frames
Codec ID : V_MPEG4/ISO/AVC
Duration : 2h 56mn
Bit rate : 4 972 Kbps
Width : 1 920 pixels
Height : 1 080 pixels
Display aspect ratio : 16:9
Frame rate mode : Constant
Frame rate : 23.976 fps
Color space : YUV
Chroma subsampling : 4:2:0
Bit depth : 8 bits
Scan type : Progressive
Bits/(Pixel*Frame) : 0.100
Stream size : 5.98 GiB (75%)
Writing library : x264 core 142
Encoding settings : cabac=1 / ref=1 / deblock=1:-1:-1 / analyse=0x3:0 / me=hex / subme=5 / psy=0 / mixed_ref=0 / me_range=16 / chroma_me=1 / trellis=0 / 8x8dct=1 / cqm=0 / deadzone=21,11 / fast_pskip=1 / chroma_qp_offset=0 / threads=8 / lookahead_threads=2 / sliced_threads=0 / nr=0 / decimate=1 / interlaced=0 / bluray_compat=0 / constrained_intra=0 / bframes=2 / b_pyramid=0 / b_adapt=1 / b_bias=0 / direct=1 / weightb=1 / open_gop=0 / weightp=0 / keyint=24 / keyint_min=13 / scenecut=40 / intra_refresh=0 / rc=abr / mbtree=0 / bitrate=4972 / ratetol=1.0 / qcomp=0.60 / qpmin=0 / qpmax=69 / qpstep=4 / ip_ratio=1.40 / pb_ratio=1.30 / aq=1:1.00
Default : Yes
Forced : No
Color primaries : BT.709
Transfer characteristics : BT.709
Matrix coefficients : BT.709
Color range : Limited

Audio
ID : 2
Format : DTS
Format/Info : Digital Theater Systems
Mode : 16
Format settings, Endianness : Big
Codec ID : A_DTS
Duration : 2h 56mn
Bit rate mode : Constant
Bit rate : 1 509 Kbps
Channel(s) : 6 channels
Channel positions : Front: L C R, Side: L R, LFE
Sampling rate : 48.0 KHz
Bit depth : 16 bits
Compression mode : Lossy
Stream size : 1.86 GiB (23%)
Language : Italian
Default : Yes
Forced : No

Text
ID : 3
Format : VobSub
Codec ID : S_VOBSUB
Codec ID/Info : The same subtitle format used on DVDs
Language : English
Default : Yes
Forced : No

Menu
00:00:00.000 : en:Chapter 01
00:20:45.535 : en:Chapter 02
00:47:46.488 : en:Chapter 03
01:08:00.326 : en:Chapter 04
01:31:38.367 : en:Chapter 05
01:54:32.073 : en:Chapter 06
02:16:37.814 : en:Chapter 07
02:32:53.664 : en:Chapter 08


All screenshots taken from Blu-ray

Joseph Losey, Lorin Maazel, Orchestre du Theatre National de l’Opera de Raris - Mozart: Don Giovanni (2013/1979) [Blu-Ray]
Joseph Losey, Lorin Maazel, Orchestre du Theatre National de l’Opera de Raris - Mozart: Don Giovanni (2013/1979) [Blu-Ray]
Joseph Losey, Lorin Maazel, Orchestre du Theatre National de l’Opera de Raris - Mozart: Don Giovanni (2013/1979) [Blu-Ray]
Joseph Losey, Lorin Maazel, Orchestre du Theatre National de l’Opera de Raris - Mozart: Don Giovanni (2013/1979) [Blu-Ray]
Joseph Losey, Lorin Maazel, Orchestre du Theatre National de l’Opera de Raris - Mozart: Don Giovanni (2013/1979) [Blu-Ray]