Tags
Language
Tags

Sylvain Cambreling, Orchestra of the Opera national de Paris - Mozart: La clemenza di Tito (2010/2005) [Blu-Ray]

Posted By: Vilboa
Sylvain Cambreling, Orchestra of the Opera national de Paris - Mozart: La clemenza di Tito (2010/2005) [Blu-Ray]

Sylvain Cambreling, Orchestra of the Opéra national de Paris - Mozart: La clemenza di Tito (2010/2005) [Blu-Ray]
BluRay | BDMV | MPEG-4 AVC Video / 25993 kbps / 1080i / 29,970 fps | 147 min | 42,2 Gb
Audio1: Italian / LPCM Audio / 2.0 / 24-bit | Audio2: DTS-HD Master Audio / 5.0 / 48 kHz / 3639 kbps / 24-bit

BluRay-rip | AVC | MKV 1920x1080 / 6215 kbps / 29,97 fps | 147 min | 8,00 Gb
Audio: Italian / DTS / 5ch / 48.0 KHz / 24 bits
Classical | Opus Arte | Sub: English, French, German, Spanish, Italian

Commissioned for the coronation of Leopold II in Prague, Mozart’s last opera is a deep, humane reflection on relationships, power and forgiveness. With the composition of some of the most beautiful passages in his oeuvre, Mozart has succeeded in giving this opera seria both a noble sobriety and transparent instrumentation, to which this commanding production by the Herrmann partnership does full justice on all levels. Susan Graham’s most extraordinary Sesto and Christoph Prégardien’s superb Tito set the standard for this riveting Opéra national de Paris performance, conducted by the outstanding Sylvain Cambreling.

Cast:
Sesto - Susan Graham
Annio - Hannah Esther Minutillo
Vitellia - Catherine Naglestad
Servilia - Ekaterina Siurina
Publio - Roland Bracht
Tito - Christoph Prégardien
Orchestra and Chorus of The Opéra national de Paris
Conductor - Sylvain Cambreling


Disc Title: LA CLEMENZA DI TITO
Disc Size: 45 363 681 646 bytes
Protection: AACS
BD-Java: No
Playlist: 00002.MPLS
Size: 37 453 381 632 bytes
Length: 2:27:33.377
Total Bitrate: 33,84 Mbps
Video: MPEG-4 AVC Video / 25993 kbps / 1080i / 29,970 fps / 16:9 / High Profile 4.1
Audio: Italian / DTS-HD Master Audio / 5.0 / 48 kHz / 3639 kbps / 24-bit (DTS Core: 5.0 / 48 kHz / 1509 kbps / 24-bit)
Audio: Italian / LPCM Audio / 2.0 / 48 kHz / 2304 kbps / 24-bit
Subtitle: English / 22,687 kbps
Subtitle: French / 21,621 kbps
Subtitle: German / 26,618 kbps
Subtitle: Spanish / 22,119 kbps
Subtitle: Italian / 20,730 kbps


General
Unique ID : 196234378616835335034577328292791603369 (0x93A15DD8D18C9BAAB34B07B9744850A9)
Complete name : C:\La_Clemenza_di_Tito.mkv
Format : Matroska
Format version : Version 2
File size : 8.00 GiB
Duration : 2h 27mn
Overall bit rate : 7 765 Kbps
Movie name : La_Clemenza_di_Tito
Encoded date : UTC 2018-08-09 17:38:41
Writing application : DVDFab 9.1.6.8
Writing library : libebml v0.7.8 + libmatroska v0.8.1

Video
ID : 1
Format : AVC
Format/Info : Advanced Video Codec
Format profile : High@L4.1
Format settings, CABAC : Yes
Format settings, ReFrames : 2 frames
Codec ID : V_MPEG4/ISO/AVC
Duration : 2h 27mn
Bit rate : 6 215 Kbps
Width : 1 920 pixels
Height : 1 080 pixels
Display aspect ratio : 16:9
Frame rate mode : Constant
Frame rate : 29.970 fps
Color space : YUV
Chroma subsampling : 4:2:0
Bit depth : 8 bits
Scan type : Progressive
Bits/(Pixel*Frame) : 0.100
Stream size : 6.29 GiB (79%)
Writing library : x264 core 142
Encoding settings : cabac=1 / ref=1 / deblock=1:-1:-1 / analyse=0x3:0 / me=hex / subme=5 / psy=0 / mixed_ref=0 / me_range=16 / chroma_me=1 / trellis=0 / 8x8dct=1 / cqm=0 / deadzone=21,11 / fast_pskip=1 / chroma_qp_offset=0 / threads=8 / lookahead_threads=2 / sliced_threads=0 / nr=0 / decimate=1 / interlaced=0 / bluray_compat=0 / constrained_intra=0 / bframes=2 / b_pyramid=0 / b_adapt=1 / b_bias=0 / direct=1 / weightb=1 / open_gop=0 / weightp=0 / keyint=24 / keyint_min=13 / scenecut=40 / intra_refresh=0 / rc=abr / mbtree=0 / bitrate=6215 / ratetol=1.0 / qcomp=0.60 / qpmin=0 / qpmax=69 / qpstep=4 / ip_ratio=1.40 / pb_ratio=1.30 / aq=1:1.00
Default : Yes
Forced : No
Color primaries : BT.709
Transfer characteristics : BT.709
Matrix coefficients : BT.709
Color range : Limited

Audio
ID : 2
Format : DTS
Format/Info : Digital Theater Systems
Mode : 16
Format settings, Endianness : Big
Codec ID : A_DTS
Duration : 2h 27mn
Bit rate mode : Constant
Bit rate : 1 509 Kbps
Channel(s) : 5 channels
Channel positions : Front: L C R, Side: L R
Sampling rate : 48.0 KHz
Bit depth : 24 bits
Compression mode : Lossy
Stream size : 1.56 GiB (19%)
Language : Italian
Default : Yes
Forced : No

Text #1
ID : 3
Format : VobSub
Codec ID : S_VOBSUB
Codec ID/Info : The same subtitle format used on DVDs
Language : English
Default : Yes
Forced : No

Text #2
ID : 4
Format : VobSub
Codec ID : S_VOBSUB
Codec ID/Info : The same subtitle format used on DVDs
Language : French
Default : No
Forced : No

Text #3
ID : 5
Format : VobSub
Codec ID : S_VOBSUB
Codec ID/Info : The same subtitle format used on DVDs
Language : German
Default : No
Forced : No

Text #4
ID : 6
Format : VobSub
Codec ID : S_VOBSUB
Codec ID/Info : The same subtitle format used on DVDs
Language : Spanish
Default : No
Forced : No

Text #5
ID : 7
Format : VobSub
Codec ID : S_VOBSUB
Codec ID/Info : The same subtitle format used on DVDs
Language : Italian
Default : No
Forced : No

Menu
00:00:00.000 : en:Chapter 01
00:04:55.495 : en:Chapter 02
00:08:36.983 : en:Chapter 03
00:11:24.250 : en:Chapter 04
00:12:54.974 : en:Chapter 05
00:19:01.340 : en:Chapter 06
00:20:26.858 : en:Chapter 07
00:22:10.762 : en:Chapter 08
00:27:25.477 : en:Chapter 09
00:30:43.775 : en:Chapter 10
00:34:09.480 : en:Chapter 11
00:36:08.099 : en:Chapter 12
00:39:31.268 : en:Chapter 13
00:41:55.312 : en:Chapter 14
00:44:12.483 : en:Chapter 15
00:47:53.036 : en:Chapter 16
00:54:37.207 : en:Chapter 17
00:55:24.921 : en:Chapter 18
00:57:56.206 : en:Chapter 19
01:01:14.103 : en:Chapter 20
01:08:23.766 : en:Chapter 21
01:10:48.677 : en:Chapter 22
01:13:43.886 : en:Chapter 23
01:15:05.067 : en:Chapter 24
01:20:57.052 : en:Chapter 25
01:24:21.656 : en:Chapter 26
01:26:23.545 : en:Chapter 27
01:28:05.413 : en:Chapter 28
01:29:27.161 : en:Chapter 29
01:33:04.211 : en:Chapter 30
01:35:41.368 : en:Chapter 31
01:39:17.718 : en:Chapter 32
01:44:06.373 : en:Chapter 33
01:51:19.339 : en:Chapter 34
01:53:10.784 : en:Chapter 35
01:58:20.760 : en:Chapter 36
02:01:10.863 : en:Chapter 37
02:03:15.221 : en:Chapter 38
02:05:41.500 : en:Chapter 39
02:13:48.720 : en:Chapter 40
02:15:20.579 : en:Chapter 41
02:17:36.915 : en:Chapter 42
02:19:16.815 : en:Chapter 43
02:23:16.521 : en:Chapter 44
02:26:34.051 : en:Chapter 45

All screenshots taken from BDRip

Sylvain Cambreling, Orchestra of the Opera national de Paris - Mozart: La clemenza di Tito (2010/2005) [Blu-Ray]