Tags
Language
Tags

Yevgeny Mravinsky, Leningrad PO - Ludwig van Beethoven: Symphony No. 4; Dmitri Shostakovich: Symphony No. 10 (2016)

Posted By: Designol
Yevgeny Mravinsky, Leningrad PO - Ludwig van Beethoven: Symphony No. 4; Dmitri Shostakovich: Symphony No. 10 (2016)

Ludwig van Beethoven: Symphony No. 4; Dmitri Shostakovich: Symphony No. 10 (2016)
Leningrad Philharmonic Orchestra; conducted by Yevgeny Mravinsky

EAC | FLAC | Image (Cue&Log) ~ 391 Mb | Scans included | Time: 01:19:26
Genre: Classical | Label: Praga Digitals | # 350 115

Shostakovich’s Tenth Symphony is 50 minutes of tragedy, despair, terror, and violence and three minutes of triumph. Premiered in 1953, the best performance is still that conducted by Mravinsky. Yevgeny Mravinsky's June 3, 1955, performance with the Leningrad Philharmonic of Beethoven's Symphony No. 4 is just as great. Mravinsky was the best Soviet conductor and his passionate precision and intense interpretations were as valid for Beethoven as they were for Shostakovich. His interpretations can be hard-driven and sharp-edged, but no one could object to the lucid strength and linear lyricism he brings to the work.

Live radio recordings, in erratically balanced mono, of a legendary team of orchestra and conductor: spick-and-span Beethoven and blisteringly thrilling Shostakovich.

Review by Anthony Burton, BBC Music Magazine (*****)

Yevgeny Mravinsky, Leningrad PO - Ludwig van Beethoven: Symphony No. 4; Dmitri Shostakovich: Symphony No. 10 (2016)



Tracklist:

Ludwig van Beethoven (1770-1827)
Symphony No. 4 in B flat major, Op. 60 (1806):
01. I. Adagio. Allegro vivace (08:56)
02. II. Adagio (09:38)
03. III. Allegro vivace (05:39)
04. IV. Allegro ma non troppo (06:36)

Dmitri Shostakovich (1906-1975)
Symphony No. 10 in E minor, Op. 93 (1953):
05. I. Moderato (22:53)
06. II. Allegro (03:49)
07. III. Allegretto (10:48)
08. IV. Andante (11:04)


Exact Audio Copy V1.0 beta 4 from 7. December 2014

EAC extraction logfile from 27. August 2016, 11:34

Yevgeny Mravinsky / From Beethoven to Shostakovich

Used drive : TSSTcorpDVDWBD TS-LB23A Adapter: 1 ID: 0

Read mode : Secure
Utilize accurate stream : Yes
Defeat audio cache : Yes
Make use of C2 pointers : No

Read offset correction : 6
Overread into Lead-In and Lead-Out : No
Fill up missing offset samples with silence : Yes
Delete leading and trailing silent blocks : No
Null samples used in CRC calculations : Yes
Used interface : Native Win32 interface for Win NT & 2000

Used output format : User Defined Encoder
Selected bitrate : 128 kBit/s
Quality : High
Add ID3 tag : Yes
Command line compressor : C:\Program Files (x86)\Exact Audio Copy\Flac\flac.exe
Additional command line options : -T "COMMENT=Ripped by GFox" -V -8 %source%


TOC of the extracted CD

Track | Start | Length | Start sector | End sector
––––––––––––––––––––––––––––-
1 | 0:00.00 | 8:56.02 | 0 | 40201
2 | 8:56.02 | 9:38.06 | 40202 | 83557
3 | 18:34.08 | 5:39.52 | 83558 | 109034
4 | 24:13.60 | 6:36.65 | 109035 | 138799
5 | 30:50.50 | 22:53.73 | 138800 | 241847
6 | 53:44.48 | 3:49.38 | 241848 | 259060
7 | 57:34.11 | 10:48.57 | 259061 | 307717
8 | 68:22.68 | 11:04.02 | 307718 | 357519


Range status and errors

Selected range

Filename D:\Downloads\Yevgeny Mravinsky - From Beethoven to Shostakovich.wav

Peak level 86.4 %
Extraction speed 1.8 X
Range quality 100.0 %
Test CRC E33962AA
Copy CRC E33962AA
Copy OK

No errors occurred


AccurateRip summary

Track 1 not present in database
Track 2 not present in database
Track 3 not present in database
Track 4 not present in database
Track 5 not present in database
Track 6 not present in database
Track 7 not present in database
Track 8 not present in database

None of the tracks are present in the AccurateRip database

End of status report

==== Log checksum 91834CDA3F5F92C5D5609F8C0E2C1250FAFD945216498E3C2D25DBB34819BE1F ====

foobar2000 1.2 / Dynamic Range Meter 1.1.1
log date: 2016-08-29 12:48:02

––––––––––––––––––––––––––––––––––––––––
Analyzed: Yevgeny Mravinsky / From Beethoven to Shostakovich
––––––––––––––––––––––––––––––––––––––––

DR Peak RMS Duration Track
––––––––––––––––––––––––––––––––––––––––
DR14 -2.62 dB -21.97 dB 8:56 01-Beethoven - Symphony No.4 , Op.60 - I. Adagio. Allegro vivace
DR14 -3.88 dB -24.66 dB 9:38 02-Beethoven - Symphony No.4 , Op.60 - II. Adagio
DR13 -1.98 dB -21.21 dB 5:40 03-Beethoven - Symphony No.4 , Op.60 - III. Allegro vivace
DR13 -1.27 dB -19.79 dB 6:37 04-Beethoven - Symphony No.4 , Op.60 - IV. Allegro ma non troppo
DR14 -1.76 dB -21.94 dB 22:54 05-Shostakovich - Symphony No.10, Op.93 - I. Moderato
DR13 -1.64 dB -19.03 dB 3:50 06-Shostakovich - Symphony No.10, Op.93 - II. Allegro
DR15 -2.81 dB -24.30 dB 10:49 07-Shostakovich - Symphony No.10, Op.93 - III. Allegretto
DR14 -1.63 dB -21.67 dB 11:04 08-Shostakovich - Symphony No.10, Op.93 - IV. Andante
––––––––––––––––––––––––––––––––––––––––

Number of tracks: 8
Official DR value: DR14

Samplerate: 44100 Hz
Channels: 2
Bits per sample: 16
Bitrate: 656 kbps
Codec: FLAC
================================================================================

Yevgeny Mravinsky, Leningrad PO - Ludwig van Beethoven: Symphony No. 4; Dmitri Shostakovich: Symphony No. 10 (2016)

All thanks to original releaser - GFox

More interesting music in My Blog