Subcategories

Mstislav Rostropovich, National Symphony Orchestra - Mussorgsky: Boris Godunov (excerpts) (1991)

Posted By: ArlegZ
Mstislav Rostropovich, National Symphony Orchestra - Mussorgsky: Boris Godunov (excerpts) (1991)

Mstislav Rostropovich, National Symphony Orchestra - Mussorgsky: Boris Godunov (excerpts) (1991)
EAC | FLAC | Image (Cue & Log) ~ 282 Mb | Total time: 65:32 | Scans included
Classical | Label: Erato| 2292-45467-2 | Recorded: 1987

Boris Godunov is a work that, with its long, continuous scenes and monumental structure, does not lend itself easily to a highlights disc, especially if the intention is to give a fair cross-section of the opera. The producers of this compilation, drawn from a complete recording originally issued by Erato, wisely concentrate the choice on a few substantial chunks, covering most of Boris’s part. To this they add a couple of snippets that can stand on their own, out of context.

Performer:
Ruggero Raimondi (Boris Godunov)
Galina Vishneyevskaya (Marina)
Nicolai Gedda (Simpleton)
Paul Plishka (Pimen)
Vyacheslav Poloznov (Grigory)
Kenneth Riegel (Shuisky)
Romuald Tesarowicz (Varlaam)
Misha Raitzin (Missail)
Catherine Dubosc (Xenia)
Matthew Adam Fish (Feodor)
Lajos Miller (Shchelkalov)
The Oratorio Society of Washington
The Choral Arts Society of Washington
National Symphony Orchestra
Mstislav Rostropovich, conductor

Track List:
01. Prologue "Da zdrávstvuet tsar Boris Feódorovich!" [Coronation of Boris]
02. Act 2 "Skázochka pro to i pro syo" [Fiodor's Song]
03. Act 2 "A, preslávny vitiyá, dostóiny konovód" [The Mad Scene]
04. Act 3 "Váshey, strásti ya nye vyéryu" [Polonaise]
05. Act 3 "O tsaryévich, umolyáyu" [Love Duet]
06. Act 4 "Chur, chur! Kto govorit - ubíytsa?" [Death of Boris]
07. Act 4 "Deo, Gloria, Gloria" [The Simpleton in Kromy Forest]


Exact Audio Copy V1.3 from 2. September 2016

EAC extraction logfile from 10. December 2019, 12:25

Moussorgski, Modest / Boris Godounov (Ausschnitte)

Used drive : HL-DT-STDVDRAM GH24NSD5 Adapter: 1 ID: 0

Read mode : Secure
Utilize accurate stream : Yes
Defeat audio cache : Yes
Make use of C2 pointers : No

Read offset correction : 6
Overread into Lead-In and Lead-Out : No
Fill up missing offset samples with silence : Yes
Delete leading and trailing silent blocks : No
Null samples used in CRC calculations : Yes
Used interface : Native Win32 interface for Win NT & 2000

Used output format : User Defined Encoder
Selected bitrate : 896 kBit/s
Quality : High
Add ID3 tag : No
Command line compressor : C:\Program Files (x86)\Exact Audio Copy\FLAC\FLAC.EXE
Additional command line options : -6 -V -T "ARTIST=%artist%" -T "TITLE=%title%" -T "ALBUM=%albumtitle%" -T "DATE=%year%" -T "TRACKNUMBER=%tracknr%" -T "GENRE=%genre%" -T "COMMENT=%comment%" -T "BAND=%albuminterpret%" -T "ALBUMARTIST=%albuminterpret%" -T "COMPOSER=%composer%" %haslyrics%–tag-from-file=LYRICS="%lyricsfile%"%haslyrics% -T "DISCNUMBER=%cdnumber%" -T "TOTALDISCS=%totalcds%" -T "TOTALTRACKS=%numtracks%" %hascover%–picture="%coverfile%"%hascover% %source% -o %dest%


TOC of the extracted CD

Track | Start | Length | Start sector | End sector
––––––––––––––––––––––––––––-
1 | 0:00.33 | 7:54.32 | 33 | 35614
2 | 7:54.65 | 10:38.23 | 35615 | 83487
3 | 18:33.13 | 14:28.70 | 83488 | 148657
4 | 33:02.08 | 2:54.05 | 148658 | 161712
5 | 35:56.13 | 3:38.22 | 161713 | 178084
6 | 39:34.35 | 20:14.50 | 178085 | 269184
7 | 59:49.10 | 5:43.10 | 269185 | 294919


Range status and errors

Selected range

Filename H:\Rips\Mussorgsky - Boris Godunov (excerpts) - Rostropovich\Moussorgski, Modest - Boris Godounov (Ausschnitte).wav

Peak level 99.6 %
Extraction speed 1.8 X
Range quality 100.0 %
Test CRC FD2CEDCB
Copy CRC FD2CEDCB
Copy OK

No errors occurred


AccurateRip summary

Track 1 accurately ripped (confidence 1) [C86945FD] (AR v2)
Track 2 accurately ripped (confidence 1) [9DAC8CAA] (AR v2)
Track 3 accurately ripped (confidence 1) [45155D9E] (AR v2)
Track 4 accurately ripped (confidence 1) [148AFCC2] (AR v2)
Track 5 accurately ripped (confidence 1) [FE46EF99] (AR v2)
Track 6 accurately ripped (confidence 1) [2ADCD75C] (AR v2)
Track 7 accurately ripped (confidence 1) [844D0D19] (AR v2)

All tracks accurately ripped

End of status report

–– CUETools DB Plugin V2.1.6

[CTDB TOCID: 9_mq0U7RNh30NdTm2VyPDzbL4mw-] disk not present in database
Submit result: 9_mq0U7RNh30NdTm2VyPDzbL4mw- has been uploaded


==== Log checksum 15A6C842D37043C158EC26A8DBCD926AC899105BE20DD462BDD8F1982962FF0F ====

Mstislav Rostropovich, National Symphony Orchestra - Mussorgsky: Boris Godunov (excerpts) (1991)

Thanks to the original releaser