Subcategories
Tags
Language
Tags

Natascha Wright - Say You Think Of Me (Germany CD5) (1995) {Club Zone}

Posted By: TestTickles
Natascha Wright - Say You Think Of Me (Germany CD5) (1995) {Club Zone}

Natascha Wright - Say You Think Of Me (Germany CD5) (1995) {Club Zone}
EAC Rip | FLAC with CUE and LOG | scans | 139 mb
MP3 CBR 320 kbps | RAR | 47 mb
Genre: Eurohouse, Eurodance

"Say You Think Of Me" is a 1995 single by Natascha Wright. This German CD5 features four mixes of the song, including a nice handy radio edit. This was released by Club Zone.

Natascha Wright - Say You Think Of Me (Germany CD5) (1995) {Club Zone}

1. Say You Think Of Me (Radio Edit) (3:40)
2. Say You Think Of Me (Club Mix) (4:57)
3. Say You Think Of Me (Acid Mix) (5:02)
4. Say You Think Of Me (Dance Mix) (5:42)

Exact Audio Copy V1.3 from 2. September 2016

Отчёт EAC об извлечении, выполненном 9. Декабрь 2019, 22:04

Natascha Wright / Say You Think Of Me (Germany CD5)

Дисковод: ASUS DRW-1814BLT Adapter: 0 ID: 0

Режим чтения : Достоверность
Использование точного потока : Да
Отключение кэша аудио : Да
Использование указателей C2 : Нет

Коррекция смещения при чтении : 6
Способность читать области Lead-in и Lead-out : Нет
Заполнение пропущенных сэмплов тишиной : Да
Удаление блоков с тишиной в начале и конце : Нет
При вычислениях CRC использовались нулевые сэмплы : Да
Интерфейс : Установленный внешний ASPI-интерфейс

Выходной формат : Пользовательский кодировщик
Выбранный битрейт : 128 kBit/s
Качество : Высокий
Добавление ID3-тега : Нет
Утилита сжатия : C:\Program Files (x86)\Exact Audio Copy\FLAC\FLAC.EXE
Дополнительные параметры : -V -8 -T "Date=%year%" -T "Genre=%genre%" %source%


TOC извлечённого CD

Трек | Старт | Длительность | Начальный сектор | Конечный сектор
––––––––––––––––––––––––––––––––––-
1 | 0:00.33 | 3:40.00 | 33 | 16532
2 | 3:40.33 | 4:58.00 | 16533 | 38882
3 | 8:38.33 | 5:04.00 | 38883 | 61682
4 | 13:42.33 | 5:40.25 | 61683 | 87207


Характеристики диапазона извлечения и сообщения об ошибках

Выбранный диапазон

Имя файла C:\cuntfist\FLAC\Natascha Wright - Say You Think Of Me (Germany CD5) (1995) [FLAC] {Club Zone}\Natascha Wright - Say You Think Of Me (Germany CD5).wav

Пиковый уровень 99.7 %
Скорость извлечения 3.4 X
Качество диапазона 100.0 %
CRC теста DB170C0B
CRC копии DB170C0B
Копирование… OK

Ошибок не произошло


AccurateRip: сводка

Трек 1 : извлечено точно (доверие 1) [6D61F012] (AR v2)
Трек 2 : извлечено точно (доверие 1) [DE159010] (AR v2)
Трек 3 : извлечено точно (доверие 1) [636DB25B] (AR v2)
Трек 4 : извлечено точно (доверие 1) [7B9C0011] (AR v2)

Все треки извлечены точно

Конец отчёта

==== Контрольная сумма отчёта 9ECB8B2A0986B2A11CA478831B3EC9B261121568EF857C086127E48EDBC5A65F ====


Natascha Wright - Say You Think Of Me (Germany CD5) (1995) {Club Zone}


Thank you to the original uploader.