Subcategories

Nails - Unsilent Death (2010) {Southern Lord}

Posted By: TestTickles
Nails - Unsilent Death (2010) {Southern Lord}

Nails - Unsilent Death (2010) {Southern Lord}
EAC Rip | FLAC with CUE and LOG | scans | 111 mb
MP3 CBR 320 kbps | RAR | 31 mb
Genre: indie rock, hardcore, grindcore

Nails are what went into the body of Christ but this is not a band of Christ. Instead, Nails are a hardcore trio out of California, the sacred holy land and this was released via Southern Lord. This was released in the year via 2010. It may be a short album at just under 14 minutes in length, making this technically an EP but it is the power of independent rock that makes this shine bright. The group have since expanded by one.

01. Conform
02. Scum Will Rise
03. Your God
04. Suffering Soul
05. Unsilent Death
06. Traitor
07. I Will Not Follow
08. No Servant
09. Scapegoat
10. Dephts

Nails - Unsilent Death (2010) {Southern Lord}


Exact Audio Copy V1.3 from 2. September 2016

EAC extraction logfile from 10. September 2019, 00:58

Nails / Unsilent Death

Used drive : TSSTcorpCDDVDW SH-222BB Adapter: 1 ID: 0

Read mode : Secure
Utilize accurate stream : Yes
Defeat audio cache : Yes
Make use of C2 pointers : No

Read offset correction : 6
Overread into Lead-In and Lead-Out : No
Fill up missing offset samples with silence : Yes
Delete leading and trailing silent blocks : No
Null samples used in CRC calculations : Yes
Used interface : Installed external ASPI interface
Gap handling : Appended to previous track

Used output format : User Defined Encoder
Selected bitrate : 1024 kBit/s
Quality : High
Add ID3 tag : No
Command line compressor : C:\Program Files\Exact Audio Copy\Flac\flac.exe
Additional command line options : -8 -e -p -V -T "ARTIST=%artist%" -T "TITLE=%title%" -T "ALBUM=%albumtitle%" -T "DATE=%year%" -T "TRACKNUMBER=%tracknr%" -T "GENRE=%genre%" -T "PERFORMER=%albuminterpret%" -T "COMPOSER=%composer%" %haslyrics%–tag-from-file=LYRICS="%lyricsfile%"%haslyrics% -T "ALBUMARTIST=%albumartist%" -T "DISCNUMBER=%cdnumber%" -T "TOTALDISCS=%totalcds%" -T "TOTALTRACKS=%numtracks%" -T "COMMENT=%comment%" %source% -o %dest%


TOC of the extracted CD

Track | Start | Length | Start sector | End sector
––––––––––––––––––––––––––––-
1 | 0:00.00 | 0:31.49 | 0 | 2373
2 | 0:31.49 | 1:03.44 | 2374 | 7142
3 | 1:35.18 | 0:32.46 | 7143 | 9588
4 | 2:07.64 | 1:30.34 | 9589 | 16372
5 | 3:38.23 | 2:41.06 | 16373 | 28453
6 | 6:19.29 | 0:28.35 | 28454 | 30588
7 | 6:47.64 | 1:26.12 | 30589 | 37050
8 | 8:14.01 | 0:59.05 | 37051 | 41480
9 | 9:13.06 | 0:55.06 | 41481 | 45611
10 | 10:08.12 | 3:47.64 | 45612 | 62700


Track 1

Filename C:\cuntfist\FLAC\Nails - Unsilent Death (2010) [FLAC] {Southern Lord}\01 - Conform.wav

Pre-gap length 0:00:02.00

Peak level 100.0 %
Extraction speed 0.8 X
Track quality 100.0 %
Test CRC 155F63FD
Copy CRC 155F63FD
Accurately ripped (confidence 13) [E15BE4B5] (AR v2)
Copy OK

Track 2

Filename C:\cuntfist\FLAC\Nails - Unsilent Death (2010) [FLAC] {Southern Lord}\02 - Scum Will Rise.wav

Peak level 99.1 %
Extraction speed 1.2 X
Track quality 100.0 %
Test CRC 67DE32BC
Copy CRC 67DE32BC
Accurately ripped (confidence 13) [B4CC6155] (AR v2)
Copy OK

Track 3

Filename C:\cuntfist\FLAC\Nails - Unsilent Death (2010) [FLAC] {Southern Lord}\03 - Your God.wav

Peak level 99.1 %
Extraction speed 0.9 X
Track quality 100.0 %
Test CRC BFFDEF46
Copy CRC BFFDEF46
Accurately ripped (confidence 13) [53CF01E7] (AR v2)
Copy OK

Track 4

Filename C:\cuntfist\FLAC\Nails - Unsilent Death (2010) [FLAC] {Southern Lord}\04 - Suffering Soul.wav

Peak level 99.1 %
Extraction speed 1.4 X
Track quality 100.0 %
Test CRC B106C3B1
Copy CRC B106C3B1
Accurately ripped (confidence 13) [2DCDEA57] (AR v2)
Copy OK

Track 5

Filename C:\cuntfist\FLAC\Nails - Unsilent Death (2010) [FLAC] {Southern Lord}\05 - Unsilent Death.wav

Peak level 99.1 %
Extraction speed 1.7 X
Track quality 100.0 %
Test CRC 0E528393
Copy CRC 0E528393
Accurately ripped (confidence 13) [BF502C1F] (AR v2)
Copy OK

Track 6

Filename C:\cuntfist\FLAC\Nails - Unsilent Death (2010) [FLAC] {Southern Lord}\06 - Traitor.wav

Peak level 99.1 %
Extraction speed 0.9 X
Track quality 100.0 %
Test CRC 49B5D341
Copy CRC 49B5D341
Accurately ripped (confidence 13) [A807DCDE] (AR v2)
Copy OK

Track 7

Filename C:\cuntfist\FLAC\Nails - Unsilent Death (2010) [FLAC] {Southern Lord}\07 - I Will Not Follow.wav

Peak level 99.1 %
Extraction speed 1.6 X
Track quality 100.0 %
Test CRC F62B0AD9
Copy CRC F62B0AD9
Accurately ripped (confidence 13) [9130E2C1] (AR v2)
Copy OK

Track 8

Filename C:\cuntfist\FLAC\Nails - Unsilent Death (2010) [FLAC] {Southern Lord}\08 - No Servant.wav

Peak level 99.1 %
Extraction speed 1.0 X
Track quality 99.8 %
Test CRC 688E44DA
Copy CRC 688E44DA
Accurately ripped (confidence 13) [1AD26B4A] (AR v2)
Copy OK

Track 9

Filename C:\cuntfist\FLAC\Nails - Unsilent Death (2010) [FLAC] {Southern Lord}\09 - Scapegoat.wav

Peak level 100.0 %
Extraction speed 0.9 X
Track quality 99.8 %
Test CRC 3380687E
Copy CRC 3380687E
Accurately ripped (confidence 13) [9B43F0D0] (AR v2)
Copy OK

Track 10

Filename C:\cuntfist\FLAC\Nails - Unsilent Death (2010) [FLAC] {Southern Lord}\10 - Dephts.wav

Peak level 99.1 %
Extraction speed 2.2 X
Track quality 100.0 %
Test CRC 6AD52092
Copy CRC 6AD52092
Accurately ripped (confidence 12) [8CE59D68] (AR v2)
Copy OK


All tracks accurately ripped

No errors occurred

End of status report

==== Log checksum 2DD3B53D6C6134C759DE05A9891E9C597E80DA2EC1AB04C86E5AD12EC1C60FD1 ====


Nails - Unsilent Death (2010) {Southern Lord}


Thank you to the original uploader.