Subcategories

Nancy Wilson - 'From Broadway With Love' (1966) + 'Tender Loving Care' (1966) 2 LP in 1 CD, 2006

Posted By: Designol
Nancy Wilson - 'From Broadway With Love' (1966) + 'Tender Loving Care' (1966) 2 LP in 1 CD, 2006

Nancy Wilson - From Broadway With Love (1966) + Tender Loving Care (1966) 2 LP in 1 CD, 2006
EAC | FLAC | Tracks (Cue&Log) ~ 324 Mb | Mp3 (CBR320) ~ 141 Mb | Scans included
Vocal Jazz, Vocal Pop, Soul, Standarts | Label: EMI/Capitol | # 0946 3 51283 2 1 | 00:57:43

From Broadway With Love contains a dozen great classics from the Broadway show stage. This album features orchestrations which fall into three distinctive styles and as usual Nancy Wilson gives all of these songs her very own treatment. From the no holds barred big band version of 'Hello Dolly' to the swinging treatment of 'I've Got Your Number'. Then there's the rich string orchestra that accompanies her on 'I'll Only Miss Him When I Think Of Him' followed by a much smaller band on 'Makin' Whoopee' and 'This Dream'. Tender Loving Care is an album of love songs but not all sung or orchestrated in the form of slushy ballads. Some are pure romance and love but others really swing like 'Gee Baby, Ain't I Good To You'. Billy May arranges and conducts on this album. Put together these two albums and you have Nancy Wilson at her very best!

This two-fer CD brings together a pair of Nancy Wilson's mid-'60s dates for Capitol. Wilson's nuanced vocals might seem an awkward match with the over the top theatrics of the Great White Way, but From Broadway with Love bends the material to the singer's strengths, eschewing show tune dramatics in favor of subtle, atmospheric arrangements courtesy of Sid Feller. Wilson and Feller both approach the songs from a perspective rooted in traditional jazz and pop, gravitating to material that draws on the same inspirations – moreover, selections like "He Loves Me" and "Here's That Rainy Day" play perfectly to the singer's remarkable capacity to articulate the exhilaration and heartache of romance. Tender Loving Care teams Wilson with arranger Billy May for a collection of romantic ballads and torch songs that capture the singer at her most sensuous. May's handling of songs like "Like Someone in Love" and "Try a Little Tenderness" boasts an uncommon sensitivity, deftly avoiding syrup and sentimentality in a far-ranging series of contexts that extend from lushly orchestral to starkly jazzy. And Wilson is at her best here, taking full command of the familiar songs and reanimating them with vocals that are bold, sophisticated, and daringly adult.

Review by Jason Ankeny, Allmusic.com

Nancy Wilson - 'From Broadway With Love' (1966) + 'Tender Loving Care' (1966) 2 LP in 1 CD, 2006



Tracklist:

From Broadway With Love (1966)
01. Hey There (2:23)
02. This Dream (2:01)
03. I'll Only Miss Him When I Think Of Him (2:46)
04. He Loves Me (2:27)
05. Here's That Rainy Day (2:28)
06. I Had A Ball (2:02)
07. Hello, Dolly! (2:25)
08. Makin' Whoopee (2:20)
09. Somewhere (2:27)
10. I've Got Your Number (2:17)
11. Young And Foolish (2:51)
12. You'd Better Love Me (2:14)

Tender Loving Care (1966)
13. Don't Go To Strangers (2:52)
14. Gee Baby, Ain't I Good To You (2:28)
15. Your Name Is Love (2:15)
16. Too Late Now (2:58)
17. Like Someone In Love (2:21)
18. Tender Loving Care (2:44)
19. As You Desire Me (3:04)
20. I Want To Talk About You (2:36)
21. Love-Wise (2:31)
22. Try A Little Tenderness (2:44)
23. Close Your Eyes (2:29)


Exact Audio Copy V1.1 from 23. June 2015

EAC extraction logfile from 10. November 2016, 15:43

Nancy Wilson / From Broadway With Love + Tender Loving Care

Used drive : PBDS CD-ROM DH-48N1S Adapter: 1 ID: 0

Read mode : Secure
Utilize accurate stream : Yes
Defeat audio cache : Yes
Make use of C2 pointers : No

Read offset correction : 6
Overread into Lead-In and Lead-Out : No
Fill up missing offset samples with silence : Yes
Delete leading and trailing silent blocks : No
Null samples used in CRC calculations : Yes
Used interface : Native Win32 interface for Win NT & 2000
Gap handling : Appended to previous track

Used output format : User Defined Encoder
Selected bitrate : 768 kBit/s
Quality : High
Add ID3 tag : No
Command line compressor : C:\Program Files (x86)\Exact Audio Copy\FLAC\FLAC.EXE
Additional command line options : -8 -V -T "ARTIST=%artist%" -T "TITLE=%title%" -T "ALBUM=%albumtitle%" -T "DATE=%year%" -T "TRACKNUMBER=%tracknr%" -T "GENRE=%genre%" -T "PERFORMER=%albuminterpret%" -T "COMPOSER=%composer%" %haslyrics%–tag-from-file=LYRICS="%lyricsfile%"%haslyrics% -T "ALBUMARTIST=%albumartist%" -T "DISCNUMBER=%cdnumber%" -T "TOTALDISCS=%totalcds%" -T "TOTALTRACKS=%numtracks%" -T "COMMENT=%comment%" %source% -o %dest%


TOC of the extracted CD

Track | Start | Length | Start sector | End sector
––––––––––––––––––––––––––––-
1 | 0:00.00 | 2:23.09 | 0 | 10733
2 | 2:23.09 | 2:00.40 | 10734 | 19773
3 | 4:23.49 | 2:46.03 | 19774 | 32226
4 | 7:09.52 | 2:27.01 | 32227 | 43252
5 | 9:36.53 | 2:28.24 | 43253 | 54376
6 | 12:05.02 | 2:02.09 | 54377 | 63535
7 | 14:07.11 | 2:24.49 | 63536 | 74384
8 | 16:31.60 | 2:20.10 | 74385 | 84894
9 | 18:51.70 | 2:26.43 | 84895 | 95887
10 | 21:18.38 | 2:17.36 | 95888 | 106198
11 | 23:35.74 | 2:50.45 | 106199 | 118993
12 | 26:26.44 | 2:14.33 | 118994 | 129076
13 | 28:41.02 | 2:51.71 | 129077 | 141972
14 | 31:32.73 | 2:28.22 | 141973 | 153094
15 | 34:01.20 | 2:14.48 | 153095 | 163192
16 | 36:15.68 | 2:57.46 | 163193 | 176513
17 | 39:13.39 | 2:21.34 | 176514 | 187122
18 | 41:34.73 | 2:43.55 | 187123 | 199402
19 | 44:18.53 | 3:03.57 | 199403 | 213184
20 | 47:22.35 | 2:35.44 | 213185 | 224853
21 | 49:58.04 | 2:31.36 | 224854 | 236214
22 | 52:29.40 | 2:44.27 | 236215 | 248541
23 | 55:13.67 | 2:28.59 | 248542 | 259700


Track 1

Filename C:\EACRips\01 - Hey There.wav

Pre-gap length 0:00:02.00

Peak level 77.3 %
Extraction speed 3.6 X
Track quality 100.0 %
Test CRC E3A16C6C
Copy CRC E3A16C6C
Accurately ripped (confidence 2) [E17E82F4] (AR v1)
Copy OK

Track 2

Filename C:\EACRips\02 - This Dream.wav

Pre-gap length 0:00:01.34

Peak level 97.0 %
Extraction speed 3.7 X
Track quality 100.0 %
Test CRC 70E0DDC9
Copy CRC 70E0DDC9
Accurately ripped (confidence 2) [931F95A4] (AR v1)
Copy OK

Track 3

Filename C:\EACRips\03 - I'll Only Miss Him When I Think Of Him.wav

Pre-gap length 0:00:01.13

Peak level 90.1 %
Extraction speed 4.3 X
Track quality 100.0 %
Test CRC 52C9B5E8
Copy CRC 52C9B5E8
Accurately ripped (confidence 2) [1489005B] (AR v1)
Copy OK

Track 4

Filename C:\EACRips\04 - He Loves Me.wav

Pre-gap length 0:00:01.08

Peak level 92.8 %
Extraction speed 4.4 X
Track quality 100.0 %
Test CRC 60AF2443
Copy CRC 60AF2443
Accurately ripped (confidence 2) [8C5CCDE0] (AR v1)
Copy OK

Track 5

Filename C:\EACRips\05 - Here's That Rainy Day.wav

Pre-gap length 0:00:00.70

Peak level 65.7 %
Extraction speed 4.6 X
Track quality 100.0 %
Test CRC 9A3831EC
Copy CRC 9A3831EC
Accurately ripped (confidence 2) [2D7E27F6] (AR v1)
Copy OK

Track 6

Filename C:\EACRips\06 - I Had A Ball.wav

Pre-gap length 0:00:00.88

Peak level 99.8 %
Extraction speed 3.3 X
Track quality 100.0 %
Test CRC E4108919
Copy CRC E4108919
Accurately ripped (confidence 2) [5B4F8516] (AR v1)
Copy OK

Track 7

Filename C:\EACRips\07 - Hello, Dolly!.wav

Pre-gap length 0:00:00.36

Peak level 99.8 %
Extraction speed 4.6 X
Track quality 100.0 %
Test CRC 464D7736
Copy CRC 464D7736
Accurately ripped (confidence 2) [6D7825D3] (AR v1)
Copy OK

Track 8

Filename C:\EACRips\08 - Makin' Whoopee.wav

Pre-gap length 0:00:00.93

Peak level 99.7 %
Extraction speed 5.0 X
Track quality 100.0 %
Test CRC CE70B394
Copy CRC CE70B394
Accurately ripped (confidence 2) [2FEE1D09] (AR v1)
Copy OK

Track 9

Filename C:\EACRips\09 - Somewhere.wav

Pre-gap length 0:00:00.40

Peak level 73.1 %
Extraction speed 5.4 X
Track quality 100.0 %
Test CRC 5588B758
Copy CRC 5588B758
Accurately ripped (confidence 2) [86C122C4] (AR v1)
Copy OK

Track 10

Filename C:\EACRips\10 - I've Got Your Number.wav

Pre-gap length 0:00:01.29

Peak level 99.8 %
Extraction speed 5.4 X
Track quality 100.0 %
Test CRC C81DF345
Copy CRC C81DF345
Accurately ripped (confidence 2) [CCF2AEC4] (AR v1)
Copy OK

Track 11

Filename C:\EACRips\11 - Young And Foolish.wav

Pre-gap length 0:00:00.46

Peak level 73.1 %
Extraction speed 5.8 X
Track quality 100.0 %
Test CRC F1729986
Copy CRC F1729986
Accurately ripped (confidence 2) [AF881DA0] (AR v1)
Copy OK

Track 12

Filename C:\EACRips\12 - You'd Better Love Me.wav

Pre-gap length 0:00:01.36

Peak level 99.8 %
Extraction speed 4.4 X
Track quality 99.9 %
Test CRC D23CE9BA
Copy CRC D23CE9BA
Accurately ripped (confidence 2) [96CA56DA] (AR v1)
Copy OK

Track 13

Filename C:\EACRips\13 - Don't Go To Strangers.wav

Pre-gap length 0:00:03.57

Peak level 87.6 %
Extraction speed 5.0 X
Track quality 99.9 %
Test CRC 11442578
Copy CRC 11442578
Accurately ripped (confidence 2) [7D0781D3] (AR v1)
Copy OK

Track 14

Filename C:\EACRips\14 - Gee Baby, Ain't I Good To You.wav

Pre-gap length 0:00:01.12

Peak level 84.1 %
Extraction speed 6.2 X
Track quality 100.0 %
Test CRC 8B520EED
Copy CRC 8B520EED
Accurately ripped (confidence 2) [E2D9848C] (AR v1)
Copy OK

Track 15

Filename C:\EACRips\15 - Your Name Is Love.wav

Pre-gap length 0:00:01.52

Peak level 77.3 %
Extraction speed 6.1 X
Track quality 100.0 %
Test CRC 01C4F893
Copy CRC 01C4F893
Accurately ripped (confidence 2) [40CDEB98] (AR v1)
Copy OK

Track 16

Filename C:\EACRips\16 - Too Late Now.wav

Pre-gap length 0:00:01.45

Peak level 87.3 %
Extraction speed 5.5 X
Track quality 99.9 %
Test CRC DB62C104
Copy CRC DB62C104
Accurately ripped (confidence 2) [102FA9CF] (AR v1)
Copy OK

Track 17

Filename C:\EACRips\17 - Like Someone In Love.wav

Pre-gap length 0:00:01.70

Peak level 88.9 %
Extraction speed 6.5 X
Track quality 100.0 %
Test CRC D0303861
Copy CRC D0303861
Accurately ripped (confidence 2) [82932223] (AR v1)
Copy OK

Track 18

Filename C:\EACRips\18 - Tender Loving Care.wav

Pre-gap length 0:00:01.33

Peak level 69.6 %
Extraction speed 7.0 X
Track quality 100.0 %
Test CRC 4F382921
Copy CRC 4F382921
Accurately ripped (confidence 2) [2C0D158E] (AR v1)
Copy OK

Track 19

Filename C:\EACRips\19 - As You Desire Me.wav

Pre-gap length 0:00:00.64

Peak level 79.2 %
Extraction speed 7.1 X
Track quality 100.0 %
Test CRC 6EBEA8FA
Copy CRC 6EBEA8FA
Accurately ripped (confidence 2) [D9FF5DDC] (AR v1)
Copy OK

Track 20

Filename C:\EACRips\20 - I Want To Talk About You.wav

Pre-gap length 0:00:00.89

Peak level 80.0 %
Extraction speed 6.9 X
Track quality 100.0 %
Test CRC 1B2DC5C3
Copy CRC 1B2DC5C3
Accurately ripped (confidence 2) [7FFB914E] (AR v1)
Copy OK

Track 21

Filename C:\EACRips\21 - Love-Wise.wav

Pre-gap length 0:00:01.04

Peak level 76.9 %
Extraction speed 7.3 X
Track quality 100.0 %
Test CRC 6C09A2A0
Copy CRC 6C09A2A0
Accurately ripped (confidence 2) [422CF0A6] (AR v1)
Copy OK

Track 22

Filename C:\EACRips\22 - Try A Little Tenderness.wav

Pre-gap length 0:00:01.12

Peak level 73.7 %
Extraction speed 6.0 X
Track quality 99.9 %
Test CRC 0EF1A2DC
Copy CRC 0EF1A2DC
Accurately ripped (confidence 2) [F5C9691C] (AR v1)
Copy OK

Track 23

Filename C:\EACRips\23 - Close Your Eyes.wav

Pre-gap length 0:00:01.33

Peak level 75.3 %
Extraction speed 7.5 X
Track quality 100.0 %
Test CRC C1C5259C
Copy CRC C1C5259C
Accurately ripped (confidence 2) [69AAF4E2] (AR v1)
Copy OK


All tracks accurately ripped

No errors occurred

End of status report

–– CUETools DB Plugin V2.1.6

[CTDB TOCID: cJerw6JYcfkDcrDMNKrOoXRFfcM-] found
Submit result: cJerw6JYcfkDcrDMNKrOoXRFfcM- has been confirmed
Track | CTDB Status
1 | (4/4) Accurately ripped
2 | (4/4) Accurately ripped
3 | (4/4) Accurately ripped
4 | (4/4) Accurately ripped
5 | (4/4) Accurately ripped
6 | (4/4) Accurately ripped
7 | (4/4) Accurately ripped
8 | (4/4) Accurately ripped
9 | (4/4) Accurately ripped
10 | (4/4) Accurately ripped
11 | (4/4) Accurately ripped
12 | (4/4) Accurately ripped
13 | (4/4) Accurately ripped
14 | (4/4) Accurately ripped
15 | (4/4) Accurately ripped
16 | (4/4) Accurately ripped
17 | (4/4) Accurately ripped
18 | (4/4) Accurately ripped
19 | (4/4) Accurately ripped
20 | (4/4) Accurately ripped
21 | (4/4) Accurately ripped
22 | (4/4) Accurately ripped
23 | (4/4) Accurately ripped


==== Log checksum ABA881D7835233C9D9EFB0C7275C8493F1EA4E75A310A6378841D5B678C3B943 ====

foobar2000 1.2 / Dynamic Range Meter 1.1.1
log date: 2016-11-13 17:19:03

––––––––––––––––––––––––––––––––––––––––
Analyzed: Nancy Wilson / From Broadway With Love / Tender Loving Care
––––––––––––––––––––––––––––––––––––––––

DR Peak RMS Duration Track
––––––––––––––––––––––––––––––––––––––––
DR13 -2.23 dB -18.95 dB 2:23 01-Hey There
DR12 -0.26 dB -15.18 dB 2:01 02-This Dream
DR12 -0.90 dB -18.67 dB 2:46 03-I'll Only Miss Him When I Think Of Him
DR12 -0.65 dB -16.29 dB 2:27 04-He Loves Me
DR12 -3.64 dB -20.89 dB 2:28 05-Here's That Rainy Day
DR11 -0.01 dB -13.28 dB 2:02 06-I Had A Ball
DR12 -0.01 dB -15.40 dB 2:25 07-Hello, Dolly!
DR14 -0.02 dB -17.73 dB 2:20 08-Makin' Whoopee
DR10 -2.72 dB -17.88 dB 2:27 09-Somewhere
DR13 -0.01 dB -16.17 dB 2:17 10-I've Got Your Number
DR13 -2.72 dB -20.03 dB 2:51 11-Young And Foolish
DR13 -0.01 dB -15.22 dB 2:14 12-You'd Better Love Me
DR11 -1.14 dB -16.12 dB 2:52 13-Don't Go To Strangers
DR10 -1.50 dB -15.04 dB 2:28 14-Gee Baby, Ain't I Good To You
DR11 -2.24 dB -15.54 dB 2:15 15-Your Name Is Love
DR12 -1.18 dB -16.34 dB 2:58 16-Too Late Now
DR12 -1.02 dB -16.09 dB 2:21 17-Like Someone In Love
DR12 -3.14 dB -20.47 dB 2:44 18-Tender Loving Care
DR12 -2.02 dB -17.42 dB 3:04 19-As You Desire Me
DR12 -1.93 dB -19.75 dB 2:36 20-I Want To Talk About You
DR10 -2.27 dB -16.26 dB 2:31 21-Love-Wise
DR11 -2.64 dB -17.01 dB 2:44 22-Try A Little Tenderness
DR11 -2.45 dB -16.63 dB 2:29 23-Close Your Eyes
––––––––––––––––––––––––––––––––––––––––

Number of tracks: 23
Official DR value: DR12

Samplerate: 44100 Hz
Channels: 2
Bits per sample: 16
Bitrate: 745 kbps
Codec: FLAC
================================================================================

Nancy Wilson - 'From Broadway With Love' (1966) + 'Tender Loving Care' (1966) 2 LP in 1 CD, 2006