Subcategories
Tags
Language
Tags

Nat King Cole - Stepping Out Of A Dream (2003) Repost

Posted By: popsakov
Nat King Cole - Stepping Out Of A Dream (2003) Repost

Nat King Cole - Stepping Out Of A Dream (2003)
EAC Rip | FLAC (Img) + Cue + Log ~ 273 Mb | MP3 CBR320 ~ 154 Mb
Full Scans | 00:43:36 | RAR 5% Recovery
Hear Music #72435-81491-2-8 J109776 / EMI Music #72435-81491-2-8
Vocal Jazz / Traditional Pop

From HearMusic's Opus Collection line comes Stepping Out of a Dream, a collection of Nat King Cole's higher quality songs as deemed by the compilation experts. The collection focuses on the work from the '50s and '60s, making only passing reference to his earlier piano work. The feature that sets this compilation apart from the numerous other Cole retrospectives is the song selection. The producers avoided the most obvious choices and the standards of Cole's career, replacing them with a number of basic standards from the jazz repertoire imbued with his outstanding sense of delivery and timing. On items that did become well known as Cole pieces, an alternate recording is often used, mixing up the bag a bit and keeping the album fresh compared to the standard set of numbers used on the average Cole album. The highlights are in each song with his vocals, though the recordings here make little capitalization of his signature smoky sound (which admittedly developed more toward the end of the period covered). The songs sometimes jump with a little of his earlier jiving feel and sometimes wander through a basic ballad powered only by his lush voice. It is a generally nice album. Pick up the standard fare for the classic signature songs, but snag this one, as well, for a somewhat fuller look at Cole's sound.

~ Adam Greenberg, All Music

***************

Track List:

01. Get To Gettin' [0:02:21.42]
02. Straighten Up and Fly Right [0:02:38.02]
03. (I Love You) For Sentimental Reasons [0:03:05.53]
04. Just For The Fun Of It [0:02:36.26]
05. It's Only A Paper Moon [0:02:57.71]
06. (Get Your Kicks On) Route 66 [0:02:57.36]
07. I Was A Little Too Lonely (And You Were A Little Too Late) [0:03:01.24]
08. L-O-V-E [0:02:33.32]
09. Embraceable You [0:03:47.16]
10. You're Looking At Me [0:04:14.23]
11. Just You, Just Me [0:03:02.38]
12. Sweet Lorraine [0:04:36.70]
13. You Stepped Out Of A Dream [0:02:36.42]
14. Summer Is A-Comin' In [0:03:07.11]

Exact Audio Copy V1.0 beta 3 from 29. August 2011

EAC extraction logfile from 7. August 2014, 16:44

Nat King Cole / Stepping Out of a Dream

Used drive : ATAPI iHAS124 D Adapter: 0 ID: 2

Read mode : Secure
Utilize accurate stream : Yes
Defeat audio cache : Yes
Make use of C2 pointers : No

Read offset correction : 6
Overread into Lead-In and Lead-Out : No
Fill up missing offset samples with silence : Yes
Delete leading and trailing silent blocks : No
Null samples used in CRC calculations : Yes
Used interface : Installed external ASPI interface

Used output format : User Defined Encoder
Selected bitrate : 1024 kBit/s
Quality : High
Add ID3 tag : No
Command line compressor : C:\Program Files (x86)\Exact Audio Copy\Flac\flac.exe
Additional command line options : -6 -V -T "ARTIST=%artist%" -T "TITLE=%title%" -T "ALBUM=%albumtitle%" -T "DATE=%year%" -T "TRACKNUMBER=%tracknr%" -T "GENRE=%genre%" -T "COMMENT=%comment%" -T "BAND=%albuminterpret%" -T "COMPOSER=%composer%" %haslyrics%–tag-from-file=LYRICS="%lyricsfile%"%haslyrics% -T "DISCNUMBER=%cdnumber%" -T "TOTALDISCS=%totalcds%" -T "TOTALTRACKS=%numtracks%" %hascover%–picture="%coverfile%"%hascover% %source% -o %dest%


TOC of the extracted CD

Track | Start | Length | Start sector | End sector
––––––––––––––––––––––––––––-
1 | 0:00.00 | 2:21.42 | 0 | 10616
2 | 2:21.42 | 2:38.02 | 10617 | 22468
3 | 4:59.44 | 3:05.53 | 22469 | 36396
4 | 8:05.22 | 2:36.26 | 36397 | 48122
5 | 10:41.48 | 2:57.71 | 48123 | 61468
6 | 13:39.44 | 2:57.36 | 61469 | 74779
7 | 16:37.05 | 3:01.24 | 74780 | 88378
8 | 19:38.29 | 2:33.32 | 88379 | 99885
9 | 22:11.61 | 3:47.16 | 99886 | 116926
10 | 25:59.02 | 4:14.23 | 116927 | 135999
11 | 30:13.25 | 3:02.38 | 136000 | 149687
12 | 33:15.63 | 4:36.70 | 149688 | 170457
13 | 37:52.58 | 2:36.42 | 170458 | 182199
14 | 40:29.25 | 3:07.11 | 182200 | 196235


Range status and errors

Selected range

Filename C:\mm\Nat King Cole\2003 - Stepping Out Of A Dream [762111626141]\Nat King Cole - Stepping Out of a Dream.wav

Peak level 99.9 %
Extraction speed 8.2 X
Range quality 99.9 %
Test CRC 3ADFDA7C
Copy CRC 3ADFDA7C
Copy OK

No errors occurred


AccurateRip summary

Track 1 accurately ripped (confidence 2) [9ABC4C24] (AR v2)
Track 2 accurately ripped (confidence 2) [731B96A2] (AR v2)
Track 3 accurately ripped (confidence 2) [7D74D149] (AR v2)
Track 4 accurately ripped (confidence 2) [8406EAC3] (AR v2)
Track 5 accurately ripped (confidence 2) [53F93E16] (AR v2)
Track 6 accurately ripped (confidence 2) [6E4C1DEB] (AR v2)
Track 7 accurately ripped (confidence 2) [04C9218A] (AR v2)
Track 8 accurately ripped (confidence 2) [E36D55E7] (AR v2)
Track 9 accurately ripped (confidence 2) [B5A791EE] (AR v2)
Track 10 accurately ripped (confidence 2) [6773D334] (AR v2)
Track 11 accurately ripped (confidence 2) [7DCB0138] (AR v2)
Track 12 accurately ripped (confidence 2) [E0E253BC] (AR v2)
Track 13 accurately ripped (confidence 2) [9624A814] (AR v2)
Track 14 accurately ripped (confidence 2) [70147197] (AR v2)

All tracks accurately ripped

End of status report

[CUETools log; Date: 03.05.2021 1:32:47; Version: 2.1.6]
[CTDB TOCID: 3cWNSVMbFZ2anT2pFWAWy03yFqs-] found.
Track | CTDB Status
1 | (20/20) Accurately ripped
2 | (20/20) Accurately ripped
3 | (20/20) Accurately ripped
4 | (20/20) Accurately ripped
5 | (20/20) Accurately ripped
6 | (20/20) Accurately ripped
7 | (20/20) Accurately ripped
8 | (20/20) Accurately ripped
9 | (20/20) Accurately ripped
10 | (20/20) Accurately ripped
11 | (20/20) Accurately ripped
12 | (20/20) Accurately ripped
13 | (20/20) Accurately ripped
14 | (20/20) Accurately ripped
[AccurateRip ID: 001543dd-00e717f1-b70a380e] found.
Track [ CRC | V2 ] Status
01 [d18944ec|9abc4c24] (05+13/18) Accurately ripped
02 [d56d7979|731b96a2] (05+13/18) Accurately ripped
03 [2f0628fc|7d74d149] (05+13/18) Accurately ripped
04 [8a888d9c|8406eac3] (05+13/18) Accurately ripped
05 [63355bb7|53f93e16] (05+13/18) Accurately ripped
06 [fe431f16|6e4c1deb] (05+13/18) Accurately ripped
07 [ff8281b8|04c9218a] (05+13/18) Accurately ripped
08 [75dd3111|e36d55e7] (05+13/18) Accurately ripped
09 [2a8bb514|b5a791ee] (05+13/18) Accurately ripped
10 [a3481ef8|6773d334] (05+13/18) Accurately ripped
11 [56849bce|7dcb0138] (05+13/18) Accurately ripped
12 [a6d00843|e0e253bc] (05+13/18) Accurately ripped
13 [b6b32015|9624a814] (05+13/18) Accurately ripped
14 [0d837754|70147197] (05+13/18) Accurately ripped

Track Peak [ CRC32 ] [W/O NULL] [ LOG ]
– 99,9 [3ADFDA7C] [11A92775] CRC32
01 99,8 [3B2E301E] [8DF5B371]
02 93,3 [CCA5A6AC] [5BEBB2B3]
03 88,5 [3F1BE76C] [C802E023]
04 93,0 [77744ACB] [BBBE8C06]
05 98,0 [C4A674B6] [1AECF5AB]
06 98,0 [B7F0D22A] [E39E9FF2]
07 95,3 [DDA27EB8] [D7A87DFE]
08 99,9 [B931B230] [D328721F]
09 90,0 [9DA52482] [C9DCE9CA]
10 89,5 [56BA429F] [B368B818]
11 98,1 [A8A31D5D] [47D4450D]
12 98,2 [5BB77D33] [E0379786]
13 88,6 [A3D4B2C2] [74E175F9]
14 98,2 [04E14502] [0F4B247F]

Nat King Cole - Stepping Out Of A Dream (2003) Repost


All thanks go to sergych

>>> Nat King Cole in my Blog <<<

DOWNLOAD: